Если свекровь - монстр / Monster-in-Law (Роберт Лукетич / Robert Luketic) [2005, США, комедия, мелодрама, DVDRip] [Fullscreen] Dub + DVO (Tycoon)

Ответить на тему
Статистика раздачи [Обновить пиров]
Размер:  2.19 GB   |    Зарегистрирован:  1 год 9 месяцев   |    Скачан:  0 раз

Полного источника не было: Никогда

 
   
 
 
 
Автор Сообщение

torrentc.info

Создавать темы 14-Фев-2017 19:18

[Цитировать]

Если свекровь - монстр / Monster-in-Law / Fullscreen
Страна: США
Жанр: комедия, мелодрама
Год выхода: 2005
Продолжительность: 01:32:02
Перевод: Профессиональный (дублированный)
Перевод 2: Профессиональный (двухголосый, закадровый) Tycoon
Cубтитры: нет
Оригинальная аудиодорожка: нет
Режиссер: Роберт Лукетич / Robert Luketic
В ролях: Дженнифер Лопез / Jennifer Lopez, Джейн Фонда / Jane Fonda, Майкл Вартан / Michael Vartan, Ванда Сайкес / Wanda Sykes, Адам Скотт / Adam Scott, Монит Мазур / Monet Mazur, Энни Париссе / Annie Parisse, Уилл Арнетт / Will Arnett, Илэйн Стритч / Elaine Stritch, Стивен Данэм / Stephen Dunham
Описание: Несмотря на свой ум и красоту, бесконечные попытки Шарлотты «Чарли» Кантиллини найти себе подходящего мужчину оказываются неудачными. И вот она встречает Кевина — красивого, заботливого, преуспевающего и… свободного молодого человека! Более того, даже после многих месяцев встреч Чарли не удается отыскать в нем хоть какой-нибудь недостаток.
Неужели, в конце концов, она нашла идеального мужчину? Итак, Кевин делает Чарли предложение. Казалось бы, все безупречно. Но не тут-то было. Вместе с Кевином появляется Виола — властная мамаша с явными замашками собственницы, которая ни перед чем не остановится, чтобы саботировать предстоящую свадьбу сына…
Доп. информация: Наполнение кадра отличается от Widescreen и Open Matte (в основном на FS обрезок, но иногда добавлено) За DVD спасибо Vouka
Сэмпл: http://multi-up.com/1135537
Качество видео: DVDRip
Формат файла: AVI
Видео: MPEG4, XviD, 640x464 (1.379), 23.976 fps, 2 181 Kbps (0.306 bit/pixel)
Аудио: AC-3, 48.0 KHz, 6 ch, 448 Kbps, CBR - dub
Аудио 2: AC-3, 48.0 KHz, 6 ch, 448 Kbps, CBR - dvo

MediaInfo

Общее
Полное имя : M:\Если свекровь - монстр.avi
Формат файла : AVI
Формат файла/Информация : Audio Video Interleave
Профиль формата : OpenDML
Размер файла : 2,19 Гбайт
Продолжительность : 1 ч. 41 м.
Общий поток : 3095 Кбит/сек
Название фильма : Если свекровь - монстр / Monster-in-Law (2005)
Программа кодирования : VirtualDubMod 1.5.10.2 (build 2540/release)
Библиотека кодирования : VirtualDubMod build 2540/release
Авторское право : miha2154
Видео
Идентификатор : 0
Формат файла : MPEG-4 Visual
Профиль формата : Advanced Simple@L5
Параметр BVOP формата : 1
Параметр QPel формата : Нет
Параметр GMC формата : Без точки перехода
Параметр матрицы формата : Выборочная
Идентификатор кодека : XVID
Идентификатор кодека/Подсказка : XviD
Продолжительность : 1 ч. 41 м.
Битрейт : 2181 Кбит/сек
Ширина : 640 пикселей
Высота : 464 пикселя
Соотношение сторон : 1,379
Частота кадров : 23,976 (24000/1001) кадра/сек
Цветовое пространство : YUV
Субдискретизация насыщенности : 4:2:0
Битовая глубина : 8 бит
Тип развёртки : Прогрессивная
Метод сжатия : С потерями
Бит/(Пиксели*Кадры) : 0.306
Размер потока : 1,54 Гбайт (70%)
Библиотека кодирования : XviD 65
Аудио #1
Идентификатор : 1
Формат файла : AC-3
Формат файла/Информация : Audio Coding 3
Расширение режима : CM (complete main)
Параметр Endianness формата : Big
Идентификатор кодека : 2000
Продолжительность : 1 ч. 41 м.
Вид битрейта : Постоянный
Битрейт : 448 Кбит/сек
Каналы : 6 каналов
Расположение каналов : Front: L C R, Side: L R, LFE
Частота : 48,0 КГц
Частота кадров : 31,250 кадров/сек (1536 spf)
Метод сжатия : С потерями
Размер потока : 324 Мбайт (14%)
Выравнивание : Разделение по промежуткам
Продолжительность промежутка : 42 мс. (1,00 видеокадр)
Время предзагрузки промежутка : 500 мс.
Заголовок : Профессиональный (полное дублирование)
Аудио #2
Идентификатор : 2
Формат файла : AC-3
Формат файла/Информация : Audio Coding 3
Расширение режима : VO (voice over)
Параметр Endianness формата : Big
Идентификатор кодека : 2000
Продолжительность : 1 ч. 41 м.
Вид битрейта : Постоянный
Битрейт : 448 Кбит/сек
Каналы : 6 каналов
Расположение каналов : Front: L C R, Side: L R, LFE
Частота : 48,0 КГц
Частота кадров : 31,250 кадров/сек (1536 spf)
Метод сжатия : С потерями
Размер потока : 324 Мбайт (14%)
Выравнивание : Разделение по промежуткам
Продолжительность промежутка : 42 мс. (1,00 видеокадр)
Время предзагрузки промежутка : 500 мс.
Заголовок : Профессиональный (двухголосый, закадровый) Tycoon

Скриншоты




[torrentc.info]_torrent-5340016.torrent
Торрент: Зарегистрирован ·  [ 2017-02-14 19:18 ] ·  bc6aa96b3d17ee37651106266e228f60795be7f7

11 KB

Статус: проверено
Скачан: 0 раз
Размер: 2.19 GB
Оценка: 
(Голосов: 0)
Сказали спасибо: 0  Спасибо
Похожие темы
[Профиль]    [ЛС]
Показать сообщения:    
Ответить на тему

Текущее время: Сегодня 05:59

Часовой пояс: GMT + 7



Вы не можете начинать темы
Вы не можете отвечать на сообщения
Вы не можете редактировать свои сообщения
Вы не можете удалять свои сообщения
Вы не можете голосовать в опросах
Вы не можете прикреплять файлы к сообщениям
Вы можете скачивать файлы