Клад / Дыры / Holes (Эндрю Дэвис / Andrew Davis) [2003, США, комедия, приключения, семейный, WEB-DLRip-AVC] Dub (Невафильм) + DVO + Sub Rus, Eng + Original Eng

Ответить на тему
Статистика раздачи [Обновить пиров]
Размер:  3.3 GB   |    Зарегистрирован:  1 год 5 месяцев   |    Скачан:  0 раз

Полного источника не было: Никогда

 
   
 
 
 
Автор Сообщение

torrentc.info

Создавать темы 14-Фев-2017 19:18

[Цитировать]

15.01.17 раздача обновлена, видеоряд заменён на более качественный.-Клад / Holes
Страна: США
Жанр: комедия, приключения, семейный
Год выхода: 2003
Продолжительность: 01:57:25
Перевод 1: Профессиональный (дублированный) Невафильм
Перевод 2: Профессиональный (двухголосый закадровый)
Cубтитры: русские, английские
Оригинальная аудиодорожка: английский отдельным файлом
Режиссер: Эндрю Дэвис / Andrew Davis
В ролях: Сигурни Уивер, Джон Войт, Тим Блейк Нельсон, Шайа ЛаБаф, Джэйк М. Смит, Байрон Коттон, Хлео Томас, Бренден Джеффресон, Мигель Кастро, Макс Кэш...
Описание: На семье подростка по имени Стенли Илнетс лежит древнее проклятие. Все его предки по мужской линии были обречены попадать в самые невероятные жизненные переделки. Вот и Стенли получает срок в исправительном трудовом лагере «Зелёное озеро» за преступление, которое он не совершал. Администрация лагеря в лице хищной начальницы и жестокого старшего надзирателя заставляет своих подопечных ежедневно копать в пустыне странные ямы, называя это «трудовой терапией». Никто из этих ребят не знает, зачем на самом деле они роют все эти ямы…
Сэмпл: http://sendfile.su/1299429
Качество видео: [url=viewtopic.php?t=5138061]WEB-DLRip-AVC[/url]
Формат файла: MKV
Видео: 1108x598 (1.85:1), 23.976 fps, AVC, ~2684 Kbps, 0.169 bits/pixel
Аудио 1: Russian, 48.0 KHz, AC3, 6 ch, 448 Kbps - Невафильм
Аудио 2: Russian, 48.0 KHz, AC3, 6 ch, 448 Kbps
Аудио 3: English, 48.0 KHz, AC3, 6 ch, 448 Kbps отдельным файлом

Log

avs4x26x.exe: -L x264_64.exe --pass 2 --bitrate 2684 --preset medium --ref 10 --deblock -1:-1 --merange 32 --bframes 10 --direct auto --b-adapt 2 --trellis 2 --no-fast-pskip --subme 10 --me umh --rc-lookahead 50 --vbv-bufsize 14000 --vbv-maxrate 14000 --partitions p8x8,b8x8,i4x4,i8x8 --sar 1:1 --stats
raw [info]: 1108x598p 1:1 @ 24000/1001 fps (cfr)
x264 [info]: using SAR=1/1
x264 [info]: using cpu capabilities: MMX2 SSE2Fast LZCNT
x264 [info]: profile High, level 4.0
x264 [info]: frame I:1619 Avg QP:17.56 size: 88347
x264 [info]: frame P:40393 Avg QP:20.97 size: 27328
x264 [info]: frame B:126886 Avg QP:23.76 size: 8792
x264 [info]: consecutive B-frames: 2.4% 4.5% 9.6% 34.3% 15.8% 25.3% 3.5% 3.1% 0.8% 0.4% 0.2%
x264 [info]: mb I I16..4: 4.7% 82.1% 13.2%
x264 [info]: mb P I16..4: 1.2% 12.0% 1.6% P16..4: 42.7% 23.8% 12.9% 0.0% 0.0% skip: 5.9%
x264 [info]: mb B I16..4: 0.1% 1.3% 0.2% B16..8: 42.4% 9.1% 2.4% direct: 5.2% skip:39.5% L0:43.7% L1:46.3% BI:10.0%
x264 [info]: 8x8 transform intra:81.9% inter:70.8%
x264 [info]: direct mvs spatial:98.8% temporal:1.2%
x264 [info]: coded y,uvDC,uvAC intra: 85.7% 73.4% 30.6% inter: 24.7% 19.0% 0.6%
x264 [info]: i16 v,h,dc,p: 24% 18% 8% 50%
x264 [info]: i8 v,h,dc,ddl,ddr,vr,hd,vl,hu: 12% 9% 5% 10% 14% 14% 14% 11% 12%
x264 [info]: i4 v,h,dc,ddl,ddr,vr,hd,vl,hu: 12% 14% 3% 8% 14% 14% 13% 10% 12%
x264 [info]: i8c dc,h,v,p: 34% 27% 22% 18%
x264 [info]: Weighted P-Frames: Y:7.2% UV:3.1%
x264 [info]: ref P L0: 51.3% 14.6% 15.9% 5.3% 4.2% 2.7% 2.4% 1.2% 1.2% 1.1% 0.1% 0.0%
x264 [info]: ref B L0: 79.7% 9.5% 4.5% 2.2% 1.5% 1.2% 0.9% 0.4% 0.2%
x264 [info]: ref B L1: 95.8% 4.2%
x264 [info]: kb/s:2682.91
x264 [total]: encoded 168898 frames, 6.80 fps, 2682.91 kb/s

MediaInfo

General
Unique ID : 237027733848814707602731369777214093379 (0xB251E18AFBBE8FD4BCFB5DCB1D557843)
Complete name : D:\Holes\Holes.mkv
Format : Matroska
Format version : Version 4 / Version 2
File size : 2.94 GiB
Duration : 1h 57mn
Overall bit rate : 3 581 Kbps
Encoded date : UTC 2017-01-15 17:49:17
Writing application : mkvmerge v9.7.1 ('Pandemonium') 64bit
Writing library : libebml v1.3.4 + libmatroska v1.4.5
Video
ID : 1
Format : AVC
Format/Info : Advanced Video Codec
Format profile : High@L4
Format settings, CABAC : Yes
Format settings, ReFrames : 10 frames
Codec ID : V_MPEG4/ISO/AVC
Duration : 1h 57mn
Bit rate : 2 684 Kbps
Width : 1 108 pixels
Height : 598 pixels
Display aspect ratio : 1.85:1
Frame rate mode : Constant
Frame rate : 23.976 (24000/1001) fps
Color space : YUV
Chroma subsampling : 4:2:0
Bit depth : 8 bits
Scan type : Progressive
Bits/(Pixel*Frame) : 0.169
Stream size : 2.20 GiB (75%)
Writing library : x264 core 148 r2744 b97ae06
Encoding settings : cabac=1 / ref=10 / deblock=1:-1:-1 / analyse=0x3:0x113 / me=umh / subme=10 / psy=1 / psy_rd=1.00:0.00 / mixed_ref=1 / me_range=32 / chroma_me=1 / trellis=2 / 8x8dct=1 / cqm=0 / deadzone=21,11 / fast_pskip=0 / chroma_qp_offset=-2 / threads=6 / lookahead_threads=1 / sliced_threads=0 / nr=0 / decimate=1 / interlaced=0 / bluray_compat=0 / constrained_intra=0 / bframes=10 / b_pyramid=2 / b_adapt=2 / b_bias=0 / direct=3 / weightb=1 / open_gop=0 / weightp=2 / keyint=250 / keyint_min=23 / scenecut=40 / intra_refresh=0 / rc_lookahead=50 / rc=2pass / mbtree=1 / bitrate=2684 / ratetol=1.0 / qcomp=0.60 / qpmin=0 / qpmax=69 / qpstep=4 / cplxblur=20.0 / qblur=0.5 / vbv_maxrate=14000 / vbv_bufsize=14000 / nal_hrd=none / filler=0 / ip_ratio=1.40 / aq=1:1.00
Language : English
Default : Yes
Forced : No
Audio #1
ID : 2
Format : AC-3
Format/Info : Audio Coding 3
Mode extension : CM (complete main)
Format settings, Endianness : Big
Codec ID : A_AC3
Duration : 1h 57mn
Bit rate mode : Constant
Bit rate : 448 Kbps
Channel(s) : 6 channels
Channel positions : Front: L C R, Side: L R, LFE
Sampling rate : 48.0 KHz
Frame rate : 31.250 fps (1536 spf)
Compression mode : Lossy
Stream size : 376 MiB (13%)
Title : Невафильм
Language : Russian
Default : Yes
Forced : No
Audio #2
ID : 3
Format : AC-3
Format/Info : Audio Coding 3
Mode extension : CM (complete main)
Format settings, Endianness : Big
Codec ID : A_AC3
Duration : 1h 57mn
Bit rate mode : Constant
Bit rate : 448 Kbps
Channel(s) : 6 channels
Channel positions : Front: L C R, Side: L R, LFE
Sampling rate : 48.0 KHz
Frame rate : 31.250 fps (1536 spf)
Compression mode : Lossy
Stream size : 376 MiB (13%)
Language : Russian
Default : No
Forced : No
Text #1
ID : 4
Format : UTF-8
Codec ID : S_TEXT/UTF8
Codec ID/Info : UTF-8 Plain Text
Duration : 1h 56mn
Bit rate : 84 bps
Count of elements : 1378
Stream size : 72.2 KiB (0%)
Language : Russian
Default : No
Forced : No
Text #2
ID : 5
Format : UTF-8
Codec ID : S_TEXT/UTF8
Codec ID/Info : UTF-8 Plain Text
Duration : 1h 56mn
Bit rate : 76 bps
Count of elements : 2250
Stream size : 65.4 KiB (0%)
Language : English
Default : No
Forced : No
Menu
00:00:00.000 : en:Opening Credits/The Family Curse
00:05:14.000 : en:Welcome To Camp Green Lake
00:10:07.000 : en:Boys Of D-Tent
00:14:06.000 : en:The Legend Of Kissin' Kate Barlow
00:16:05.000 : en:Digging The First Hole
00:18:43.000 : en:Stanley Yelnats The First
00:24:14.000 : en:Yellow Spotted Lizards
00:26:33.000 : en:A Letter To Mom
00:28:07.000 : en:Onion Sam And Miss Katherine
00:31:06.000 : en:Don't Mess With Caveman
00:37:27.000 : en:Finding Something Special
00:43:53.000 : en:The Deal
00:52:40.000 : en:Miss Katherine's Revenge
00:53:57.000 : en:Mr. Sir's Sunflower Seeds
00:56:40.000 : en:The Warden's Recipe
00:59:26.000 : en:Stanley Teaches Zero To Read
01:10:48.000 : en:Zero Runs Away
01:14:10.000 : en:Stanley Goes After Zero
01:21:21.000 : en:Stanley And Zero Climb "God's Thumb"
01:28:01.000 : en:A Cure For Stinky Feet
01:29:10.000 : en:Zero Confesses
01:33:46.000 : en:Kissin' Kate's Last Stand
01:36:21.000 : en:One More Hole
01:47:46.000 : en:Opening The Chest/End Credits

Скриншоты



[torrentc.info]_torrent-4446586.torrent
Торрент: Зарегистрирован ·  [ 2017-02-14 19:18 ] ·  52a378eb34747de3faddb6165cdd50601fb23918

17 KB

Статус: проверено
Скачан: 0 раз
Размер: 3.3 GB
Оценка: 
(Голосов: 0)
Сказали спасибо: 0  Спасибо
Похожие темы
[Профиль]    [ЛС]
Показать сообщения:    
Ответить на тему

Текущее время: Сегодня 22:02

Часовой пояс: GMT + 7



Вы не можете начинать темы
Вы не можете отвечать на сообщения
Вы не можете редактировать свои сообщения
Вы не можете удалять свои сообщения
Вы не можете голосовать в опросах
Вы не можете прикреплять файлы к сообщениям
Вы можете скачивать файлы