Корабль-призрак / Ghost Ship (Стив Бек / Steve Beck) [2002, США, Австралия, Ужасы, BDRip] AVO (Сергей Визгунов) + Original Eng

Ответить на тему
Статистика раздачи [Обновить пиров]
Размер:  1.42 GB   |    Зарегистрирован:  1 год 9 месяцев   |    Скачан:  0 раз

Полного источника не было: Никогда

 
   
 
 
 
Автор Сообщение

torrentc.info

Создавать темы 14-Фев-2017 19:18

[Цитировать]

Корабль-призрак / Ghost Ship
Страна: США, Австралия
Жанр: Ужасы
Год выхода: 2002
Продолжительность: 01:30:43
Перевод: Авторский (одноголосый закадровый) Сергей Визгунов
Cубтитры: нет
Оригинальная аудиодорожка: английский
Режиссер: Стив Бек / Steve Beck
В ролях: Джулианна Маргулис, Десмонд Хэррингтон, Гэбриел Бирн, Рон Элдард, Исайя Вашингтон, Карл Урбан, Эмили Браунинг, Алекс Димитриадес, Франческа Реттондини, Боб Руджеро
Описание: Морское правило гласит: любой брошенный в нейтральных водах корабль становится собственностью того, кому посчастливилось найти судно и взять его на буксир. Но команде профессиональных спасателей из этой картины, счастье изменило: их ждала жуткая и смертельная находка!
"Корабль-призрак" - стильный, шокирующий фильм ужасов с умопомрачительными спецэффектами - грандиозное детище от продюсеров "Дома ночных призраков" и "13 привидений": Джоэла Силвера, Роберта Земекиса и Гилберта Адлера. Опытным, готовым ко всему, спасателям предстоит встретиться лицом к лицу с настоящим кошмаром, после высадки на борт "необитаемого" роскошного океанского лайнера. Джулианна Маргулис, Гэбриэл Бирн, Рон Элдард и Айзэйя Вашингтон - "звездная" команда, которой придется сразиться с морским хранилищем людских душ. Эта потрясающая картина была поставлена Стивом Беком - режиссером "13 привидений".
Доп. информация: Дорожка с С. Визгуновым синхронизирована и наложена ale_x2008 при помощи Sony Vegas и VirtualDubMod. Восстановлен правильный стереоэффект, отцентрирован баланс звука.
За оцифрованную с VHS дорожку благодарим - d_rocker

Сэмпл: https://yadi.sk/i/6ktkMQSB39yuAa
Релиз группы:
Качество видео: BDRip
Формат файла: AVI
Видео: XviD build 50, 720x400 (1.80:1), 23.976 fps, 1843 kbps avg, 0.27 bit/pixel
Аудио: AC3 Dolby Digital, 48000Hz, 2/0 (L,R) ch (stereo), 192.00 kbps avg
Аудио 2: AC3 Dolby Digital, 48000Hz, 2/0 (L,R) ch (stereo), 192.00 kbps avg

MediaInfo

Корабль-призрак - Ghost Ship [by ale_x2008].avi
Format : AVI
Format/Info : Audio Video Interleave
File size : 1.42 GiB
Duration : 1 h 30 min
Overall bit rate : 2 242 kb/s
Movie name : Korabl-prizrak (2002) BDRip
Director : KalliostroV
Writing application : VirtualDubMod 1.5.10.2 (build 2540/release)
Copyright : ale_x2008 | Edich2
Comment : Torrentc.org
Video
ID : 0
Format : MPEG-4 Visual
Format profile : Advanced Simple@L5
Format settings, BVOP : 1
Format settings, QPel : No
Format settings, GMC : No warppoints
Format settings, Matrix : Default (MPEG)
Codec ID : XVID
Codec ID/Hint : XviD
Duration : 1 h 30 min
Bit rate : 1 844 kb/s
Width : 720 pixels
Height : 400 pixels
Display aspect ratio : 16:9
Frame rate : 23.976 (23976/1000) FPS
Color space : YUV
Chroma subsampling : 4:2:0
Bit depth : 8 bits
Scan type : Progressive
Compression mode : Lossy
Bits/(Pixel*Frame) : 0.267
Stream size : 1.17 GiB (82%)
Writing library : XviD 1.2.1 (UTC 2008-12-04)
Audio #1
ID : 1
Format : AC-3
Format/Info : Audio Coding 3
Mode extension : CM (complete main)
Format settings, Endianness : Big
Codec ID : 2000
Duration : 1 h 30 min
Bit rate mode : Constant
Bit rate : 192 kb/s
Channel(s) : 2 channels
Channel positions : Front: L R
Sampling rate : 48.0 kHz
Frame rate : 31.250 FPS (1536 spf)
Compression mode : Lossy
Stream size : 125 MiB (9%)
Alignment : Split accross interleaves
Interleave, duration : 42 ms (1.00 video frame)
Interleave, preload duratio : 500 ms
Audio #2
ID : 2
Format : AC-3
Format/Info : Audio Coding 3
Mode extension : CM (complete main)
Format settings, Endianness : Big
Codec ID : 2000
Duration : 1 h 30 min
Bit rate mode : Constant
Bit rate : 192 kb/s
Channel(s) : 2 channels
Channel positions : Front: L R
Sampling rate : 48.0 kHz
Frame rate : 31.250 FPS (1536 spf)
Compression mode : Lossy
Stream size : 125 MiB (9%)
Alignment : Split accross interleaves
Interleave, duration : 42 ms (1.00 video frame)
Interleave, preload duratio : 500 ms

Скриншоты




[torrentc.info]_torrent-5344441.torrent
Торрент: Зарегистрирован ·  [ 2017-02-14 19:18 ] ·  a614025fdd8ab48dec8f3acb6f2ce22d55b7e45a

15 KB

Статус: проверено
Скачан: 0 раз
Размер: 1.42 GB
Оценка: 
(Голосов: 0)
Сказали спасибо: 0  Спасибо
Похожие темы
[Профиль]    [ЛС]
Показать сообщения:    
Ответить на тему

Текущее время: Сегодня 07:02

Часовой пояс: GMT + 7



Вы не можете начинать темы
Вы не можете отвечать на сообщения
Вы не можете редактировать свои сообщения
Вы не можете удалять свои сообщения
Вы не можете голосовать в опросах
Вы не можете прикреплять файлы к сообщениям
Вы можете скачивать файлы