Поле / Põld / The Field (Рейн Раамат / Rein Raamat) [1978, СССР, мультфильм, притча, VHSRip]

Ответить на тему
Статистика раздачи [Обновить пиров]
Размер:  108 MB   |    Зарегистрирован:  1 год 11 месяцев   |    Скачан:  0 раз

Полного источника не было: Никогда

 
   
 
 
 
Автор Сообщение

torrentc.info

Создавать темы 12-Мар-2017 09:55

[Цитировать]

Поле / Põld / The Field
Страна: СССР (Эстонская республика)
Жанр: мультфильм, притча
Продолжительность: 00:09:13
Год выхода: 1978
Перевод: не требуется
Русские субтитры: нет
Режиссёр: Рейн Раамат / Rein Raamat
Описание: Расчищая поле, крестьянин корчует из земли пни и нагружает телегу огромными валунами. Лошадь, запряжённая в эту телегу, вдруг сбрасывает ярмо и убегает на волю...
Доп. информация: Премия Союза Художников Туркменской республики - XXII Всесоюзный КиноФестиваль в Ашхабаде (1979)
Качество: VHSRip
Формат файла: AVI
Видео: 1505 kbps, 704х528 (4:3), 25.000 fps, MPEG-4 Visual (XviD)
Аудио: 128 kbps, 48.0 kHz, 2 channels, MPEG Audio (MP3)
Субтитры: отсутствуют

Подробные технические данные

GeneralComplete name : Põld (1978).aviFormat : AVIFormat/Info : Audio Video InterleaveFile size : 108 MiBDuration : 9mn 13sOverall bit rate : 1 642 KbpsWriting application : VirtualDubMod 1.5.4.1 (build 2178/release)Writing library : VirtualDub build 35491/release
VideoID : 0Format : MPEG-4 VisualFormat profile : Advanced Simple@L5Format settings, BVOP : 2Format settings, QPel : NoFormat settings, GMC : No warppointsFormat settings, Matrix : Default (H.263)Codec ID : XVIDCodec ID/Hint : XviDDuration : 9mn 13sBit rate : 1 505 KbpsWidth : 704 pixelsHeight : 528 pixelsDisplay aspect ratio : 4:3Frame rate : 25.000 fpsColor space : YUVChroma subsampling : 4:2:0Bit depth : 8 bitsScan type : ProgressiveCompression mode : LossyBits/(Pixel*Frame) : 0.162Stream size : 99.2 MiB (92%)Writing library : XviD 64
AudioID : 1Format : MPEG AudioFormat version : Version 1Format profile : Layer 3Mode : Joint stereoMode extension : MS StereoCodec ID : 55Codec ID/Hint : MP3Duration : 9mn 13sBit rate mode : ConstantBit rate : 128 KbpsChannel(s) : 2 channelsSampling rate : 48.0 KHzCompression mode : LossyStream size : 8.44 MiB (8%)Alignment : Aligned on interleavesInterleave, duration : 40 ms (1.00 video frame)Interleave, preload duration : 504 ms

Скриншоты



[torrentc.info]_t_5217996.torrent
Торрент: Зарегистрирован ·  [ 2017-03-12 09:54 ] ·  14245bda4b862ee38ec783ad92bd3243f4c5923f

17 KB

Статус: проверено
Скачан: 0 раз
Размер: 108 MB
Оценка: 
(Голосов: 0)
Сказали спасибо: 0  Спасибо
Похожие темы
[Профиль]    [ЛС]
Показать сообщения:    
Ответить на тему

Текущее время: Сегодня 16:41

Часовой пояс: GMT + 7



Вы не можете начинать темы
Вы не можете отвечать на сообщения
Вы не можете редактировать свои сообщения
Вы не можете удалять свои сообщения
Вы не можете голосовать в опросах
Вы не можете прикреплять файлы к сообщениям
Вы можете скачивать файлы