Зилантовы сказки: Кто самый сильный? (Сергей Киатров) [2014, РФ, мультфильм, DVDScreener]

Ответить на тему
Статистика раздачи [Обновить пиров]
Размер:  129 MB   |    Зарегистрирован:  1 год 11 месяцев   |    Скачан:  0 раз

Полного источника не было: Никогда

 
   
 
 
 
Автор Сообщение

torrentc.info

Создавать темы 12-Мар-2017 09:55

[Цитировать]

Зилантовы сказки: Кто самый сильный?
Страна: РФ
Жанр: мультфильм
Продолжительность: 00:07:20
Год выхода: 2014
Русские субтитры: нет
Режиссёр: Сергей Киатров
Описание: Анимационная трилогия «Зилантовы сказки» повествует о значении культурного наследия Казани для всего тюркского мира. Зилантик – символ Казани – рассказывает маленьким зрителям поучительные сказки, обращая внимание на исторические особенности культуры тюрков. Данная серия – иносказательное повествование о соревнованиях по силе и выносливости на народном празднике Сабантуй.
Доп. информация: Фильм - участник конкурсной программы фестиваля Суздаль-2015
Качество: DVDScreener
Формат файла: AVI
Видео: DIVX, 720x408, 25,00 fps, 2259kbps
Аудио: MPEG Layer 3, 48kHz, 2ch, 192kbps
Субтитры: отсутствуют

Подробные технические данные

Полное имя :Кто самый сильный.aviФормат файла : AVIФормат файла/Информация : Audio Video InterleaveРазмер файла : 129 МбайтПродолжительность : 7 м. 20 с.Общий поток : 2461 Кбит/секПрограмма кодирования : VirtualDubMod 1.5.10.3 | www.virtualdub-fr.org || (build 2550/release)Библиотека кодирования : VirtualDubMod build 2550/release
ВидеоИдентификатор : 0Формат файла : MPEG-4 VisualПрофиль формата : Advanced Simple@L5Параметр BVOP формата : 1Параметр QPel формата : НетПараметр GMC формата : Без точки переходаПараметр матрицы формата : Default (H.263)Идентификатор кодека : XVIDИдентификатор кодека/Подсказка : XviDПродолжительность : 7 м. 20 с.Битрейт : 2259 Кбит/секШирина : 720 пикселейВысота : 408 пикселейСоотношение сторон : 16:9Частота кадров : 25,000 кадров/секЦветовое пространство : YUVСубдискретизация насыщенности : 4:2:0Битовая глубина : 8 битТип развёртки : ПрогрессивнаяМетод сжатия : С потерямиБит/(Пиксели*Кадры) : 0.308Размер потока : 119 Мбайт (92%)Библиотека кодирования : XviD 1.2.1 (UTC 2008-12-04)
АудиоИдентификатор : 1Формат файла : MPEG AudioВерсия формата : Version 1Профиль формата : Layer 3Идентификатор кодека : 55Идентификатор кодека/Подсказка : MP3Продолжительность : 7 м. 20 с.Вид битрейта : ПостоянныйБитрейт : 192 Кбит/секКаналы : 2 каналаЧастота : 48,0 КГцМетод сжатия : С потерямиРазмер потока : 10,1 Мбайт (8%)Выравнивание : Соединение по промежуткамПродолжительность промежутка : 40 мс. (1,00 видеокадр)Время предзагрузки промежутка : 504 мс.Библиотека кодирования : LAME3.99rНастройки программы : -m s -V 4 -q 0 -lowpass 18.6 -b 192

Скриншоты





[torrentc.info]_t_5218288.torrent
Торрент: Зарегистрирован ·  [ 2017-03-12 09:54 ] ·  c9f4413adb751b0a67bdba2aea43e582066690b6

11 KB

Статус: проверено
Скачан: 0 раз
Размер: 129 MB
Оценка: 
(Голосов: 0)
Сказали спасибо: 0  Спасибо
Похожие темы
[Профиль]    [ЛС]
Показать сообщения:    
Ответить на тему

Текущее время: Сегодня 10:24

Часовой пояс: GMT + 7



Вы не можете начинать темы
Вы не можете отвечать на сообщения
Вы не можете редактировать свои сообщения
Вы не можете удалять свои сообщения
Вы не можете голосовать в опросах
Вы не можете прикреплять файлы к сообщениям
Вы можете скачивать файлы