Храбрый Гонза (Илья Суворкин) [2010, Россия, мультфильм, WEBRip-AVC]

Ответить на тему
Статистика раздачи [Обновить пиров]
Размер:  312 MB   |    Зарегистрирован:  1 год 11 месяцев   |    Скачан:  0 раз

Полного источника не было: Никогда

 
   
 
 
 
Автор Сообщение

torrentc.info

Создавать темы 12-Мар-2017 09:55

[Цитировать]

Храбрый Гонза
Страна: Россия
Жанр: мультфильм
Продолжительность: 00:15:22
Год выхода: 2010
Режиссёр: Илья Суворкин
Описание: По мотивам сказки Йозефа Лады "Ленивый Гонза".
Деревенский парень Гонза, которому по сказке предназначено стать победителем дракона, слишком ленив. Он не желает подняться с печи и просит, чтобы дракона доставили прямо к дому...
Доп. информация: Диплом жюри за авторскую графику - Суздальский фестиваль (2011)
Качество: WEBRip-AVC
Формат файла: MP4
Видео: 2640 kbps, 1280х720 (16:9), 25.000 fps, AVC (High@L3.1)
Аудио: 192 kbps, 44.1 kHz, 2 channels, AAC (LC)
Субтитры: отсутствуют

Подробные технические данные

GeneralComplete name : Храбрый Гонза (2010).mp4Format : MPEG-4Format profile : Base Media / Version 2Codec ID : mp42File size : 312 MiBDuration : 15mn 22sOverall bit rate mode : VariableOverall bit rate : 2 834 KbpsEncoded date : UTC 2014-03-13 21:27:55Tagged date : UTC 2014-03-13 21:27:55gsst : 0gstd : 922458
VideoID : 1Format : AVCFormat/Info : Advanced Video CodecFormat profile : High@L3.1Format settings, CABAC : YesFormat settings, ReFrames : 1 frameFormat settings, GOP : M=1, N=60Codec ID : avc1Codec ID/Info : Advanced Video CodingDuration : 15mn 22sBit rate : 2 640 KbpsMaximum bit rate : 7 430 KbpsWidth : 1 280 pixelsHeight : 720 pixelsDisplay aspect ratio : 16:9Frame rate mode : ConstantFrame rate : 25.000 fpsColor space : YUVChroma subsampling : 4:2:0Bit depth : 8 bitsScan type : ProgressiveBits/(Pixel*Frame) : 0.115Stream size : 290 MiB (93%)Tagged date : UTC 2014-03-13 21:28:43
AudioID : 2Format : AACFormat/Info : Advanced Audio CodecFormat profile : LCCodec ID : 40Duration : 15mn 22sBit rate mode : VariableBit rate : 192 KbpsMaximum bit rate : 201 KbpsChannel(s) : 2 channelsChannel positions : Front: L RSampling rate : 44.1 KHzCompression mode : LossyStream size : 21.1 MiB (7%)Title : IsoMedia File Produced by Google, 5-11-2011Encoded date : UTC 2014-03-13 21:28:24Tagged date : UTC 2014-03-13 21:28:43

Скриншоты



[torrentc.info]_t_5221036.torrent
Торрент: Зарегистрирован ·  [ 2017-03-12 09:54 ] ·  6414c3e4a3ec9be51d7670a54fbc3599d7f5cf2c

13 KB

Статус: проверено
Скачан: 0 раз
Размер: 312 MB
Оценка: 
(Голосов: 0)
Сказали спасибо: 0  Спасибо
Похожие темы
[Профиль]    [ЛС]
Показать сообщения:    
Ответить на тему

Текущее время: Сегодня 16:29

Часовой пояс: GMT + 7



Вы не можете начинать темы
Вы не можете отвечать на сообщения
Вы не можете редактировать свои сообщения
Вы не можете удалять свои сообщения
Вы не можете голосовать в опросах
Вы не можете прикреплять файлы к сообщениям
Вы можете скачивать файлы