Носки большого города (Андрей Ушаков) [2000, Россия, анимация, DVDRip]

Ответить на тему
Статистика раздачи [Обновить пиров]
Размер:  225 MB   |    Зарегистрирован:  1 год 11 месяцев   |    Скачан:  0 раз

Полного источника не было: Никогда

 
   
 
 
 
Автор Сообщение

torrentc.info

Создавать темы 12-Мар-2017 09:55

[Цитировать]

Носки большого города
Страна: Россия
Жанр: анимация
Продолжительность: 00:14:21
Год выхода: 2000
Русские субтитры: нет

Режиссёр: Андрей Ушаков
Описание: Они обычные носки, но даже у них есть представления о "жизни их мечты". Поэтому однажды, когда будни были слишком серыми, а небо слишком печальным, носки сбежали. Они выпрыгнули из окна и отправились на поиски своего маленького счастья.
Качество: [url=viewtopic.php?t=3184027]DVDRip[/url]
Формат файла: AVI
Видео: 656x368 (1.78:1), 25 fps, XviD build 73 ~1799 kbps avg, 0.30 bit/pixel
Аудио: 48 kHz, AC3 Dolby Digital, 3/2 (L,C,R,l,r) ch, ~384 kbps
Субтитры: отсутствуют

Подробные технические данные

ОбщееПолное имя : H:\Носки.большого.города.2000.DVDRip_[teko].aviФормат файла : AVIФормат файла/Информация : Audio Video InterleaveРазмер файла : 225 МбайтПродолжительность : 14 м.Общий поток : 2194 Кбит/секПрограмма кодирования : VirtualDubMod 1.5.10.3 | www.virtualdub-fr.org || (build 2550/release)Библиотека кодирования : VirtualDubMod build 2550/release
ВидеоИдентификатор : 0Формат файла : MPEG-4 VisualПрофиль формата : Advanced Simple@L5Параметр BVOP формата : 2Параметр QPel формата : НетПараметр GMC формата : Без точки переходаПараметр матрицы формата : ВыборочнаяИдентификатор кодека : XVIDИдентификатор кодека/Подсказка : XviDПродолжительность : 14 м.Битрейт : 1800 Кбит/секШирина : 656 пикселейВысота : 368 пикселейСоотношение сторон : 16:9Частота кадров : 25,000 кадров/секЦветовое пространство : YUVСубдискретизация насыщенности : 4:2:0Битовая глубина : 8 битТип развёртки : ПрогрессивнаяМетод сжатия : С потерямиБит/(Пиксели*Кадры) : 0.298Размер потока : 185 Мбайт (82%)Библиотека кодирования : XviD 73
АудиоИдентификатор : 1Формат файла : AC-3Формат файла/Информация : Audio Coding 3Расширение режима : CM (complete main)Параметр Endianness формата : BigИдентификатор кодека : 2000Продолжительность : 14 м.Вид битрейта : ПостоянныйБитрейт : 384 Кбит/секКаналы : 6 каналовChannel(s)_Original : 5 каналовРасположение каналов : Front: L C R, Side: L RЧастота : 48,0 КГцБитовая глубина : 16 битМетод сжатия : С потерямиРазмер потока : 39,4 Мбайт (18%)Выравнивание : Разделение по промежуткамПродолжительность промежутка : 40 мс. (1,00 видеокадр)Время предзагрузки промежутка : 500 мс.

Скриншоты

:
-
-


[torrentc.info]_t_5221416.torrent
Торрент: Зарегистрирован ·  [ 2017-03-12 09:54 ] ·  9da0a4714bd08431eb089d74dca3831e49777bcb

18 KB

Статус: проверено
Скачан: 0 раз
Размер: 225 MB
Оценка: 
(Голосов: 0)
Сказали спасибо: 0  Спасибо
Похожие темы
[Профиль]    [ЛС]
Показать сообщения:    
Ответить на тему

Текущее время: Сегодня 10:12

Часовой пояс: GMT + 7



Вы не можете начинать темы
Вы не можете отвечать на сообщения
Вы не можете редактировать свои сообщения
Вы не можете удалять свои сообщения
Вы не можете голосовать в опросах
Вы не можете прикреплять файлы к сообщениям
Вы можете скачивать файлы