Пилипка / Піліпка (Татьяна Кублицкая) [2012, Беларусь, мультфильм, сказка, WEBRip-AVC] original + rus sub

Ответить на тему
Статистика раздачи [Обновить пиров]
Размер:  86 MB   |    Зарегистрирован:  1 год 11 месяцев   |    Скачан:  0 раз

Полного источника не было: Никогда

 
   
 
 
 
Автор Сообщение

torrentc.info

Создавать темы 12-Мар-2017 09:55

[Цитировать]

Пилипка / Піліпка
Страна: Беларусь
Жанр: мультфильм, сказка
Продолжительность: 00:06:47
Год выхода: 2012
Перевод: субтитры
Русские субтитры: есть
Режиссёр: Татьяна Кублицкая
Описание: По мотивам белорусской сказки "Пилипка-сынок".
Про доброго мальчика Пилипку, попавшего однажды в избушку к злой Бабе Яге...
Доп. информация: Лучший мультфильм - Международный кинофестиваль фильмов для детей и юношества в Злине
Гран-при конкурса анимационных фильмов - Кинофестиваль "Лучезарный ангел" в Москве
Диплом жюри - Открытый российский фестиваль анимационного кино в Суздале
Качество: WEBRip-AVC
Формат файла: MP4
Видео: 1570 kbps, 1280х720 (16:9), 25.000 fps, AVC (High@L3.1)
Аудио: 192 kbps, 44.1 kHz, 2 channels, AAC (LC)
Субтитры: русские (hardsub)

Подробные технические данные

GeneralComplete name : Піліпка (2012).mp4Format : MPEG-4Format profile : Base Media / Version 2Codec ID : mp42File size : 85.7 MiBDuration : 6mn 47sOverall bit rate mode : VariableOverall bit rate : 1 765 KbpsEncoded date : UTC 2014-02-18 10:35:49Tagged date : UTC 2014-02-18 10:35:49gsst : 0gstd : 407463
VideoID : 1Format : AVCFormat/Info : Advanced Video CodecFormat profile : High@L3.1Format settings, CABAC : YesFormat settings, ReFrames : 1 frameFormat settings, GOP : M=1, N=60Codec ID : avc1Codec ID/Info : Advanced Video CodingDuration : 6mn 47sBit rate : 1 570 KbpsMaximum bit rate : 5 276 KbpsWidth : 1 280 pixelsHeight : 720 pixelsDisplay aspect ratio : 16:9Frame rate mode : ConstantFrame rate : 25.000 fpsColor space : YUVChroma subsampling : 4:2:0Bit depth : 8 bitsScan type : ProgressiveBits/(Pixel*Frame) : 0.068Stream size : 76.3 MiB (89%)Tagged date : UTC 2014-02-18 10:35:52
AudioID : 2Format : AACFormat/Info : Advanced Audio CodecFormat profile : LCCodec ID : 40Duration : 6mn 47sBit rate mode : VariableBit rate : 192 KbpsMaximum bit rate : 206 KbpsChannel(s) : 2 channelsChannel positions : Front: L RSampling rate : 44.1 KHzCompression mode : LossyStream size : 9.33 MiB (11%)Title : IsoMedia File Produced by Google, 5-11-2011Encoded date : UTC 2014-02-18 10:35:51Tagged date : UTC 2014-02-18 10:35:52

Скриншоты



[torrentc.info]_t_5221926.torrent
Торрент: Зарегистрирован ·  [ 2017-03-12 09:54 ] ·  75c2518b5baa67147cdd851872d40f8f263e9d2d

14 KB

Статус: проверено
Скачан: 0 раз
Размер: 86 MB
Оценка: 
(Голосов: 0)
Сказали спасибо: 0  Спасибо
Похожие темы
[Профиль]    [ЛС]
Показать сообщения:    
Ответить на тему

Текущее время: Сегодня 10:09

Часовой пояс: GMT + 7



Вы не можете начинать темы
Вы не можете отвечать на сообщения
Вы не можете редактировать свои сообщения
Вы не можете удалять свои сообщения
Вы не можете голосовать в опросах
Вы не можете прикреплять файлы к сообщениям
Вы можете скачивать файлы