Мышка (Владимир Петкевич) [2013, Беларусь, мультфильм, сказка, WEBRip]

Ответить на тему
Статистика раздачи [Обновить пиров]
Размер:  100 MB   |    Зарегистрирован:  1 год 11 месяцев   |    Скачан:  0 раз

Полного источника не было: Никогда

 
   
 
 
 
Автор Сообщение

torrentc.info

Создавать темы 12-Мар-2017 09:55

[Цитировать]

Мышка
Страна: Беларусь
Жанр: мультфильм, сказка
Продолжительность: 00:12:26
Год выхода: 2013
Перевод: не требуется
Русские субтитры: нет
Режиссёр: Владимир Петкевич
Описание: Сказка про маленькую мышку, которая хотела мир посмотреть. Однажды ушла её мама на рынок, а Мыша тотчас нарядилась в мамино платье и отправилась в путешествие...
Качество: WEBRip
Формат файла: AVI
Видео: 985 kbps, 672х368 (1.85:1), 25.000 fps, MPEG-4 Visual (XviD)
Аудио: 128 kbps, 44.1 kHz, 2 channels, MPEG Audio (MP3)
Субтитры: отсутствуют

Подробные технические данные

GeneralComplete name : Мышка (2013).aviFormat : AVIFormat/Info : Audio Video InterleaveFile size : 99.9 MiBDuration : 12mn 26sOverall bit rate : 1 123 KbpsWriting library : VirtualDub build 35491/release
VideoID : 0Format : MPEG-4 VisualFormat profile : Advanced Simple@L4Format settings, BVOP : 2Format settings, QPel : NoFormat settings, GMC : No warppointsFormat settings, Matrix : Default (H.263)Codec ID : XVIDCodec ID/Hint : XviDDuration : 12mn 26sBit rate : 985 KbpsWidth : 672 pixelsHeight : 368 pixelsDisplay aspect ratio : 1.85:1Frame rate : 25.000 fpsColor space : YUVChroma subsampling : 4:2:0Bit depth : 8 bitsScan type : ProgressiveCompression mode : LossyBits/(Pixel*Frame) : 0.159Stream size : 87.7 MiB (88%)Writing library : XviD 64
AudioID : 1Format : MPEG AudioFormat version : Version 1Format profile : Layer 3Mode : Joint stereoMode extension : MS StereoCodec ID : 55Codec ID/Hint : MP3Duration : 12mn 26sBit rate mode : ConstantBit rate : 128 KbpsChannel(s) : 2 channelsSampling rate : 44.1 KHzCompression mode : LossyStream size : 11.4 MiB (11%)Alignment : Split accross interleavesInterleave, duration : 40 ms (1.00 video frame)Interleave, preload duration : 501 ms

Скриншоты



[torrentc.info]_t_5225112.torrent
Торрент: Зарегистрирован ·  [ 2017-03-12 09:54 ] ·  cf444d0b8b081b6e6c671759ecd904bbb9349d3e

16 KB

Статус: проверено
Скачан: 0 раз
Размер: 100 MB
Оценка: 
(Голосов: 0)
Сказали спасибо: 0  Спасибо
Похожие темы
[Профиль]    [ЛС]
Показать сообщения:    
Ответить на тему

Текущее время: Сегодня 16:16

Часовой пояс: GMT + 7



Вы не можете начинать темы
Вы не можете отвечать на сообщения
Вы не можете редактировать свои сообщения
Вы не можете удалять свои сообщения
Вы не можете голосовать в опросах
Вы не можете прикреплять файлы к сообщениям
Вы можете скачивать файлы