Ушла в Париж (Алексей Миронов, Юлия Матросова) [2014, РФ, мультфильм, DVDScreener]

Ответить на тему
Статистика раздачи [Обновить пиров]
Размер:  64 MB   |    Зарегистрирован:  1 год 11 месяцев   |    Скачан:  0 раз

Полного источника не было: Никогда

 
   
 
 
 
Автор Сообщение

torrentc.info

Создавать темы 12-Мар-2017 09:55

[Цитировать]

Ушла в Париж
Страна: РФ
Жанр: мультфильм
Продолжительность: 00:03:58
Год выхода: 2014
Русские субтитры: нет
Режиссёр: Алексей Миронов, Юлия Матросова
Описание: История улитки, мечтающей о путешествиях.
Доп. информация: Фильм - участник конкурсной программы фестиваля Суздаль-2015
Качество: DVDScreener
Формат файла: AVI
Видео: DIVX, 720x408, 25,00 fps, 2095kbps
Аудио: MPEG Layer 3, 48kHz, 2ch, 192kbps
Субтитры: отсутствуют

Подробные технические данные

GeneralComplete name : Ушла в Париж.aviFormat : AVIFormat/Info : Audio Video InterleaveFile size : 63.6 MiBDuration : 3mn 58sOverall bit rate : 2 233 KbpsWriting application : VirtualDubMod 1.5.10.3 | www.virtualdub-fr.org || (build 2550/release)Writing library : VirtualDubMod build 2550/release
VideoID : 0Format : MPEG-4 VisualFormat profile : Simple@L1Format settings, BVOP : NoFormat settings, QPel : NoFormat settings, GMC : No warppointsFormat settings, Matrix : Default (H.263)Codec ID : DIVXCodec ID/Info : Project MayoCodec ID/Hint : DivX 4Duration : 3mn 58sBit rate : 2 095 KbpsWidth : 720 pixelsHeight : 408 pixelsDisplay aspect ratio : 16:9Frame rate : 25.000 fpsColor space : YUVChroma subsampling : 4:2:0Bit depth : 8 bitsScan type : ProgressiveCompression mode : LossyBits/(Pixel*Frame) : 0.285Stream size : 59.6 MiB (94%)Writing library : Lavc53.33.0
AudioID : 1Format : MPEG AudioFormat version : Version 1Format profile : Layer 3Codec ID : 55Codec ID/Hint : MP3Duration : 3mn 58sBit rate mode : ConstantBit rate : 128 KbpsChannel count : 2 channelsSampling rate : 48.0 KHzCompression mode : LossyStream size : 3.64 MiB (6%)Alignment : Aligned on interleavesInterleave, duration : 40 ms (1.00 video frame)Interleave, preload duration : 504 msWriting library : LAME3.99rEncoding settings : -m s -V 4 -q 2 -lowpass 17 -b 128

Скриншоты





[torrentc.info]_t_5226059.torrent
Торрент: Зарегистрирован ·  [ 2017-03-12 09:54 ] ·  68b73d933163600307c6e65e9a80a3210aa37811

20 KB

Статус: проверено
Скачан: 0 раз
Размер: 64 MB
Оценка: 
(Голосов: 0)
Сказали спасибо: 0  Спасибо
Похожие темы
[Профиль]    [ЛС]
Показать сообщения:    
Ответить на тему

Текущее время: Сегодня 16:13

Часовой пояс: GMT + 7



Вы не можете начинать темы
Вы не можете отвечать на сообщения
Вы не можете редактировать свои сообщения
Вы не можете удалять свои сообщения
Вы не можете голосовать в опросах
Вы не можете прикреплять файлы к сообщениям
Вы можете скачивать файлы