Представьте себе (Елена Касавина) [2013, Россия, мультфильм, притча, WEBRip-AVC] из цикла "Гора Самоцветов"

Ответить на тему
Статистика раздачи [Обновить пиров]
Размер:  195 MB   |    Зарегистрирован:  1 год 11 месяцев   |    Скачан:  0 раз

Полного источника не было: Никогда

 
   
 
 
 
Автор Сообщение

torrentc.info

Создавать темы 12-Мар-2017 09:55

[Цитировать]

Представьте себе
Страна: Россия
Жанр: мультфильм, притча
Продолжительность: 00:13:50
Год выхода: 2013
Автор сценария и режиссёр-постановщик: Эдуард Назаров
Режиссёр: Елена Касавина
Текст читает: Николай Рушковский
Описание: По мотивам произведений Иосифа Боярского.
Мальчик по имени Алик не хочет опять читать Тору. Он спрашивает своего дедушку, зачем это нужно. В ответ дедушка начинает рассказывать ему историю о том, как два еврея попали на крышу...
Качество: WEBRip-AVC
Формат файла: MP4
Видео: 1777 kbps, 1280х720 (16:9), 25.000 fps, AVC (High@L3.1)
Аудио: 192 kbps, 44.1 kHz, 2 channels, AAC (LC)
Субтитры: отсутствуют

Подробные технические данные

GeneralComplete name : Представьте себе (2013).mp4Format : MPEG-4Format profile : Base Media / Version 2Codec ID : mp42File size : 195 MiBDuration : 13mn 50sOverall bit rate mode : VariableOverall bit rate : 1 971 KbpsEncoded date : UTC 2014-11-26 00:17:17Tagged date : UTC 2014-11-26 00:17:17gsst : 0gstd : 831065
VideoID : 1Format : AVCFormat/Info : Advanced Video CodecFormat profile : High@L3.1Format settings, CABAC : YesFormat settings, ReFrames : 1 frameFormat settings, GOP : M=1, N=60Codec ID : avc1Codec ID/Info : Advanced Video CodingDuration : 13mn 50sBit rate : 1 777 KbpsMaximum bit rate : 11.7 MbpsWidth : 1 280 pixelsHeight : 720 pixelsDisplay aspect ratio : 16:9Frame rate mode : ConstantFrame rate : 25.000 fpsColor space : YUVChroma subsampling : 4:2:0Bit depth : 8 bitsScan type : ProgressiveBits/(Pixel*Frame) : 0.077Stream size : 176 MiB (90%)Tagged date : UTC 2014-11-26 00:17:26
AudioID : 2Format : AACFormat/Info : Advanced Audio CodecFormat profile : LCCodec ID : 40Duration : 13mn 50sBit rate mode : VariableBit rate : 192 KbpsMaximum bit rate : 202 KbpsChannel(s) : 2 channelsChannel positions : Front: L RSampling rate : 44.1 KHzCompression mode : LossyStream size : 19.0 MiB (10%)Title : IsoMedia File Produced by Google, 5-11-2011Encoded date : UTC 2014-11-26 00:17:24Tagged date : UTC 2014-11-26 00:17:26

Скриншоты



[torrentc.info]_t_5232775.torrent
Торрент: Зарегистрирован ·  [ 2017-03-12 09:54 ] ·  7b2111c26560dbbad62e3702aea549dd7de9dffb

16 KB

Статус: проверено
Скачан: 0 раз
Размер: 195 MB
Оценка: 
(Голосов: 0)
Сказали спасибо: 0  Спасибо
Похожие темы
[Профиль]    [ЛС]
Показать сообщения:    
Ответить на тему

Текущее время: Сегодня 16:00

Часовой пояс: GMT + 7



Вы не можете начинать темы
Вы не можете отвечать на сообщения
Вы не можете редактировать свои сообщения
Вы не можете удалять свои сообщения
Вы не можете голосовать в опросах
Вы не можете прикреплять файлы к сообщениям
Вы можете скачивать файлы