Новые приключения кота Леопольда / Серии: 1-13 из 13 (Анатолий Резников) [2016, Мультфильм, BDRip]

Ответить на тему
Статистика раздачи [Обновить пиров]
Размер:  2.89 GB   |    Зарегистрирован:  1 год 11 месяцев   |    Скачан:  0 раз

Полного источника не было: Никогда

 
   
 
 
 
Автор Сообщение

torrentc.info

Создавать темы 12-Мар-2017 09:55

[Цитировать]

Новые приключения кота Леопольда
«Ребята, давайте жить дружно»- Год выхода: 2016
Выпущено: Россия / Русское мобильное телевидение
Жанр: мультфильм
Продолжительность: 13 x ~ 00:13:00
Перевод: Не требуется |Лицензия|
Субтитры: нет-Режиссёр:
Анатолий Резников-Роли озвучивал:
Александр Калягин-Описание:
Продолжение историй об интеллигентном коте, который всегда приветлив и всегда носит галстук-бабочку. Двое мышат, Серый и Белый, постоянно доставляют Леопольду уйму неприятностей. Но что бы они ни придумывали, все их попытки заканчиваются неудачами. И даже в самые трудные моменты, когда, казалось бы, от мышей нет спасения, кот Леопольд не устает повторять девиз всей своей жизни: «Ребята, давайте жить дружно!».-
| | КиноПоиск | Сэмпл |-Качество: BDRip [Blu-ray Disc | 1080i | ]
Формат файла: AVI
Видео: ~ 704x400 (1.76:1), 25 fps, XviD build 67 ~2200 kbps avg, 0.32 bit/pixel
Аудио: 48 kHz, AC3 Dolby Digital, 2/0 (L,R) ch, ~224 kbps avg-

Скриншоты

-
Список серий1. Бурный поток
2. На рыбалке у реки
3. Под жарким солнцем
4. Вперед за колбасой и сыром
5. Парк развлечений
6. Лавина с гор
7. Сплошные неприятности
8. Все кувырком
9. Кулинарный рецепт
10. Птицы
11. Ремонт в тылу врага
12. Такси вызывали?
13. Новогодняя елка

MediaInfo

General
Complete name                            : D:\09_Kulinarnyi_recept.avi
Format                                   : AVI
Format/Info                              : Audio Video Interleave
File size                                : 269 MiB
Duration                                 : 15mn 0s
Overall bit rate                         : 2 508 Kbps
Writing application                      : VirtualDubMod 1.5.10.3 | www.virtualdub-fr.org || (build 2550/release)
Writing library                          : VirtualDubMod build 2550/release
Video
ID                                       : 0
Format                                   : MPEG-4 Visual
Format profile                           : Advanced Simple@L5
Format settings, BVOP                    : 2
Format settings, QPel                    : No
Format settings, GMC                     : No warppoints
Format settings, Matrix                  : Custom
Codec ID                                 : XVID
Codec ID/Hint                            : XviD
Duration                                 : 15mn 0s
Bit rate                                 : 2 274 Kbps
Width                                    : 704 pixels
Height                                   : 400 pixels
Display aspect ratio                     : 16:9
Frame rate                               : 25.000 fps
Color space                              : YUV
Chroma subsampling                       : 4:2:0
Bit depth                                : 8 bits
Scan type                                : Progressive
Compression mode                         : Lossy
Bits/(Pixel*Frame)                       : 0.323
Stream size                              : 244 MiB (91%)
Writing library                          : XviD 67
Audio
ID                                       : 1
Format                                   : AC-3
Format/Info                              : Audio Coding 3
Mode extension                           : CM (complete main)
Format settings, Endianness              : Big
Codec ID                                 : 2000
Duration                                 : 15mn 0s
Bit rate mode                            : Constant
Bit rate                                 : 224 Kbps
Channel(s)                               : 2 channels
Channel positions                        : Front: L R
Sampling rate                            : 48.0 KHz
Frame rate                               : 31.250 fps (1536 spf)
Compression mode                         : Lossy
Stream size                              : 24.0 MiB (9%)
Alignment                                : Split accross interleaves
Interleave, duration                     : 40 ms (1.00 video frame)
Interleave, preload duration             : 500 ms
-


[torrentc.info]_t_5233768.torrent
Торрент: Зарегистрирован ·  [ 2017-03-12 09:54 ] ·  f63976de0746bda50b7ead1059b72cdb8ea4d6b3

16 KB

Статус: проверено
Скачан: 0 раз
Размер: 2.89 GB
Оценка: 
(Голосов: 0)
Сказали спасибо: 0  Спасибо
Похожие темы
[Профиль]    [ЛС]
Показать сообщения:    
Ответить на тему

Текущее время: Сегодня 09:48

Часовой пояс: GMT + 7



Вы не можете начинать темы
Вы не можете отвечать на сообщения
Вы не можете редактировать свои сообщения
Вы не можете удалять свои сообщения
Вы не можете голосовать в опросах
Вы не можете прикреплять файлы к сообщениям
Вы можете скачивать файлы