Про солдата (Валентин Телегин) [2014, Россия, мультфильм, сказка, WEBRip-AVC] из цикла "Гора Самоцветов"

Ответить на тему
Статистика раздачи [Обновить пиров]
Размер:  275 MB   |    Зарегистрирован:  1 год 11 месяцев   |    Скачан:  1 раз

Полного источника не было: 1 год 9 месяцев

 
   
 
 
 
Автор Сообщение

torrentc.info

Создавать темы 12-Мар-2017 09:55

[Цитировать]

Про солдата
Страна: Россия
Жанр: мультфильм, сказка
Продолжительность: 00:13:54
Год выхода: 2014
Режиссёр: Валентин Телегин
Описание: По мотивам русских солдатских сказок.
После победоносного штурма турецкой крепости Измаил генерал-аншеф Суворов отправляет Императрице известие о победе. Доставить письмо в Петербург поручено рядовому пехотного полка...
Доп. информация: Диплом жюри за удачное стилистическое решение - Фестиваль Анимационного Кино в Суздале (2015)
Качество: WEBRip-AVC
Формат файла: MP4
Видео: 2568 kbps, 1280х720 (16:9), 25.000 fps, AVC (High@L3.1)
Аудио: 192 kbps, 44.1 kHz, 2 channels, AAC (LC)
Субтитры: отсутствуют

Подробные технические данные

GeneralComplete name : Про солдата (2014).mp4Format : MPEG-4Format profile : Base Media / Version 2Codec ID : mp42File size : 275 MiBDuration : 13mn 54sOverall bit rate mode : VariableOverall bit rate : 2 762 KbpsEncoded date : UTC 2014-12-29 08:21:06Tagged date : UTC 2014-12-29 08:21:06gsst : 0gstd : 834570
VideoID : 1Format : AVCFormat/Info : Advanced Video CodecFormat profile : High@L3.1Format settings, CABAC : YesFormat settings, ReFrames : 1 frameFormat settings, GOP : M=1, N=60Codec ID : avc1Codec ID/Info : Advanced Video CodingDuration : 13mn 54sBit rate : 2 568 KbpsMaximum bit rate : 6 687 KbpsWidth : 1 280 pixelsHeight : 720 pixelsDisplay aspect ratio : 16:9Frame rate mode : ConstantFrame rate : 25.000 fpsColor space : YUVChroma subsampling : 4:2:0Bit depth : 8 bitsScan type : ProgressiveBits/(Pixel*Frame) : 0.111Stream size : 255 MiB (93%)Tagged date : UTC 2014-12-29 08:21:15
AudioID : 2Format : AACFormat/Info : Advanced Audio CodecFormat profile : LCCodec ID : 40Duration : 13mn 54sBit rate mode : VariableBit rate : 192 KbpsMaximum bit rate : 202 KbpsChannel(s) : 2 channelsChannel positions : Front: L RSampling rate : 44.1 KHzCompression mode : LossyStream size : 19.1 MiB (7%)Title : IsoMedia File Produced by Google, 5-11-2011Encoded date : UTC 2014-12-29 08:21:13Tagged date : UTC 2014-12-29 08:21:15

Скриншоты



[torrentc.info]_t_5236555.torrent
Торрент: Зарегистрирован ·  [ 2017-03-12 09:54 ] ·  069bd63b64a125571f09603b50be88e63bf46159

11 KB

Статус: проверено
Скачан: 1 раз
Размер: 275 MB
Оценка: 
(Голосов: 0)
Сказали спасибо: 0  Спасибо
Похожие темы
[Профиль]    [ЛС]
Показать сообщения:    
Ответить на тему

Текущее время: Сегодня 09:45

Часовой пояс: GMT + 7



Вы не можете начинать темы
Вы не можете отвечать на сообщения
Вы не можете редактировать свои сообщения
Вы не можете удалять свои сообщения
Вы не можете голосовать в опросах
Вы не можете прикреплять файлы к сообщениям
Вы можете скачивать файлы