Солдат и птица (Валентин Телегин) [2013, Россия, мультфильм, сказка, WEBRip-AVC] из цикла "Гора Самоцветов"

Ответить на тему
Статистика раздачи [Обновить пиров]
Размер:  228 MB   |    Зарегистрирован:  1 год 11 месяцев   |    Скачан:  1 раз

Полного источника не было: 1 день 21 час

 
   
 
 
 
Автор Сообщение

torrentc.info

Создавать темы 12-Мар-2017 09:55

[Цитировать]

Солдат и птица
Страна: Россия
Жанр: мультфильм, сказка
Продолжительность: 00:13:58
Год выхода: 2013
Режиссёр: Валентин Телегин
Описание: По мотивам русских солдатских сказок.
Как-то раз откомандировали одного солдата в барском имении работы по хозяйству произвести. И в ту же ночь залетела к барину в сад огромная железная птица, да основательный погром там учинила. Барин приказал солдату ту птицу найти и к нему доставить...
Качество: WEBRip-AVC
Формат файла: MP4
Видео: 2081 kbps, 1280х720 (16:9), 25.000 fps, AVC (High@L3.1)
Аудио: 192 kbps, 44.1 kHz, 2 channels, AAC (LC)
Субтитры: отсутствуют

Подробные технические данные

GeneralComplete name : Солдат и птица (2013).mp4Format : MPEG-4Format profile : Base Media / Version 2Codec ID : mp42File size : 228 MiBDuration : 13mn 58sOverall bit rate mode : VariableOverall bit rate : 2 276 KbpsEncoded date : UTC 2014-11-27 10:40:32Tagged date : UTC 2014-11-27 10:40:32gsst : 0gstd : 839051
VideoID : 1Format : AVCFormat/Info : Advanced Video CodecFormat profile : High@L3.1Format settings, CABAC : YesFormat settings, ReFrames : 1 frameFormat settings, GOP : M=1, N=60Codec ID : avc1Codec ID/Info : Advanced Video CodingDuration : 13mn 58sBit rate : 2 081 KbpsMaximum bit rate : 7 435 KbpsWidth : 1 280 pixelsHeight : 720 pixelsDisplay aspect ratio : 16:9Frame rate mode : ConstantFrame rate : 25.000 fpsColor space : YUVChroma subsampling : 4:2:0Bit depth : 8 bitsScan type : ProgressiveBits/(Pixel*Frame) : 0.090Stream size : 208 MiB (91%)Tagged date : UTC 2014-11-27 10:40:56
AudioID : 2Format : AACFormat/Info : Advanced Audio CodecFormat profile : LCCodec ID : 40Duration : 13mn 58sBit rate mode : VariableBit rate : 192 KbpsMaximum bit rate : 202 KbpsChannel(s) : 2 channelsChannel positions : Front: L RSampling rate : 44.1 KHzCompression mode : LossyStream size : 19.2 MiB (8%)Title : IsoMedia File Produced by Google, 5-11-2011Encoded date : UTC 2014-11-27 10:40:49Tagged date : UTC 2014-11-27 10:40:56

Скриншоты



[torrentc.info]_t_5237132.torrent
Торрент: Зарегистрирован ·  [ 2017-03-12 09:54 ] ·  8a1c480914089f7fba8898e497efb994c28abcd5

18 KB

Статус: проверено
Скачан: 1 раз
Размер: 228 MB
Оценка: 
(Голосов: 0)
Сказали спасибо: 0  Спасибо
Похожие темы
[Профиль]    [ЛС]
Показать сообщения:    
Ответить на тему

Текущее время: Сегодня 13:53

Часовой пояс: GMT + 7



Вы не можете начинать темы
Вы не можете отвечать на сообщения
Вы не можете редактировать свои сообщения
Вы не можете удалять свои сообщения
Вы не можете голосовать в опросах
Вы не можете прикреплять файлы к сообщениям
Вы можете скачивать файлы