Питон и сторож (Антон Дьяков) [2015, Россия, мультфильм для взрослых, WEBRip-AVC]

Ответить на тему
Статистика раздачи [Обновить пиров]
Размер:  142 MB   |    Зарегистрирован:  1 год 11 месяцев   |    Скачан:  0 раз

Полного источника не было: Никогда

 
   
 
 
 
Автор Сообщение

torrentc.info

Создавать темы 12-Мар-2017 09:55

[Цитировать]

Питон и сторож
Страна: Россия
Жанр: мультфильм для взрослых
Продолжительность: 00:14:17
Год выхода: 2015
Режиссёр: Антон Дьяков
Описание: Директор зоопарка жирует, а животные содержатся впроголодь. От этой невыносимой жизни сбегает на волю африканский питон. Вслед за ним выгоняют с работы сторожа - простого мужика, выполнявшего в зоопарке всю чёрную работу. Встретившись в городе, питон и сторож обнаруживают родственность душ. Переживая вместе жизненные невзгоды, они становятся настоящими друзьями.
Доп. информация:
Приз жюри "за юмор и авантюризм" - Фестиваль анимационного кино в Суздале (2016)
Специальный приз жюри "за комическое в безысходном" - Фестиваль "Окно в Европу" (2016)
Приз дирекции - Большой фестиваль мультфильмов (2016)
Качество: WEBRip-AVC
Формат файла: MP4
Видео: 1262 kbps, 1280х720 (16:9), 25.000 fps, AVC (High@L3.1)
Аудио: 126 kbps, 44.1 kHz, 2 channels, AAC (LC)
Субтитры: отсутствуют

Подробные технические данные

GeneralComplete name : Питон и сторож (2015).mp4Format : MPEG-4Format profile : Base Media / Version 2Codec ID : mp42File size : 142 MiBDuration : 14mn 17sOverall bit rate mode : VariableOverall bit rate : 1 391 KbpsEncoded date : UTC 2016-06-01 18:40:23Tagged date : UTC 2016-06-01 18:40:23gsst : 0gstd : 857327
VideoID : 1Format : AVCFormat/Info : Advanced Video CodecFormat profile : Main@L3.1Format settings, CABAC : YesFormat settings, ReFrames : 3 framesCodec ID : avc1Codec ID/Info : Advanced Video CodingDuration : 14mn 17sBit rate : 1 262 KbpsWidth : 1 280 pixelsHeight : 720 pixelsDisplay aspect ratio : 16:9Frame rate mode : ConstantFrame rate : 25.000 fpsColor space : YUVChroma subsampling : 4:2:0Bit depth : 8 bitsScan type : ProgressiveBits/(Pixel*Frame) : 0.055Stream size : 129 MiB (91%)Title : ISO Media file produced by Google Inc.Encoded date : UTC 2016-06-01 18:40:23Tagged date : UTC 2016-06-01 18:40:23Color primaries : BT.709Transfer characteristics : BT.709Matrix coefficients : BT.709
AudioID : 2Format : AACFormat/Info : Advanced Audio CodecFormat profile : LCCodec ID : 40Duration : 14mn 17sBit rate mode : VariableBit rate : 126 KbpsChannel(s) : 2 channelsChannel positions : Front: L RSampling rate : 44.1 KHzCompression mode : LossyStream size : 12.8 MiB (9%)Title : ISO Media file produced by Google Inc.Encoded date : UTC 2016-06-01 18:40:23Tagged date : UTC 2016-06-01 18:40:23

Скриншоты



[torrentc.info]_t_5246843.torrent
Торрент: Зарегистрирован ·  [ 2017-03-12 09:54 ] ·  75911f90aa9f8ead19304cf30d94bd7b14097f61

12 KB

Статус: проверено
Скачан: 0 раз
Размер: 142 MB
Оценка: 
(Голосов: 0)
Сказали спасибо: 0  Спасибо
Похожие темы
[Профиль]    [ЛС]
Показать сообщения:    
Ответить на тему

Текущее время: Сегодня 09:43

Часовой пояс: GMT + 7



Вы не можете начинать темы
Вы не можете отвечать на сообщения
Вы не можете редактировать свои сообщения
Вы не можете удалять свои сообщения
Вы не можете голосовать в опросах
Вы не можете прикреплять файлы к сообщениям
Вы можете скачивать файлы