Кошки под дождём (Алексей Дёмин) [2001, Россия, музыкальный мультфильм, WEBRip]

Ответить на тему
Статистика раздачи [Обновить пиров]
Размер:  58 MB   |    Зарегистрирован:  1 год 11 месяцев   |    Скачан:  0 раз

Полного источника не было: Никогда

 
   
 
 
 
Автор Сообщение

torrentc.info

Создавать темы 12-Мар-2017 09:55

[Цитировать]

Кошки под дождём
Страна: Россия
Жанр: музыкальный мультфильм
Продолжительность: 00:05:48
Год выхода: 2001
Режиссёр: Алексей Дёмин
Поёт: Софья Милькина
Описание: По рисункам и шуточной песенке Софьи Милькиной про то, как старушка и её кошки ходили на рыбалку.
Доп. информация:
Спецприз международного жюри - Фестиваль анимационного кино "Золотая рыбка" (2001)
Приз жюри и диплом за лучший фильм в категории "От 5 до 10 минут" - Фестиваль "КРОК" (2001)
Диплом жюри - Кинофестиваль "Послание к человеку" (2001)
Приз жюри за самый человечный фильм - Фестиваль анимации в Тарусе (2001)
Лучший анимационный фильм - Премия "Золотой орёл" (2002)
Лучший анимационный фильм - Премия "Ника" (2002)
Качество: WEBRip
Формат файла: AVI
Видео: 1254 kbps, 576х464 (5:4), 25.000 fps, MPEG-4 Visual (XviD)
Аудио: 128 kbps, 44.1 kHz, 2 channels, MPEG Audio (MP3)
Субтитры: отсутствуют

Подробные технические данные

GeneralComplete name : Кошки под дождём (2001).aviFormat : AVIFormat/Info : Audio Video InterleaveFile size : 57.9 MiBDuration : 5mn 48sOverall bit rate : 1 392 KbpsWriting library : VirtualDub build 35491/release
VideoID : 0Format : MPEG-4 VisualFormat profile : Advanced Simple@L4Format settings, BVOP : 2Format settings, QPel : NoFormat settings, GMC : No warppointsFormat settings, Matrix : Default (H.263)Codec ID : XVIDCodec ID/Hint : XviDDuration : 5mn 48sBit rate : 1 254 KbpsWidth : 576 pixelsHeight : 464 pixelsDisplay aspect ratio : 5:4Frame rate : 25.000 fpsColor space : YUVChroma subsampling : 4:2:0Bit depth : 8 bitsScan type : ProgressiveCompression mode : LossyBits/(Pixel*Frame) : 0.188Stream size : 52.1 MiB (90%)Writing library : XviD 64
AudioID : 1Format : MPEG AudioFormat version : Version 1Format profile : Layer 3Mode : Joint stereoMode extension : MS StereoCodec ID : 55Codec ID/Hint : MP3Duration : 5mn 48sBit rate mode : ConstantBit rate : 128 KbpsChannel(s) : 2 channelsSampling rate : 44.1 KHzCompression mode : LossyStream size : 5.31 MiB (9%)Alignment : Split accross interleavesInterleave, duration : 40 ms (1.00 video frame)Interleave, preload duration : 501 ms

Скриншоты



[torrentc.info]_t_5249698.torrent
Торрент: Зарегистрирован ·  [ 2017-03-12 09:54 ] ·  546b88ec9d876b4b3baf771985ed6f6c24eeb3ce

19 KB

Статус: проверено
Скачан: 0 раз
Размер: 58 MB
Оценка: 
(Голосов: 0)
Сказали спасибо: 0  Спасибо
Похожие темы
[Профиль]    [ЛС]
Показать сообщения:    
Ответить на тему

Текущее время: Сегодня 09:42

Часовой пояс: GMT + 7



Вы не можете начинать темы
Вы не можете отвечать на сообщения
Вы не можете редактировать свои сообщения
Вы не можете удалять свои сообщения
Вы не можете голосовать в опросах
Вы не можете прикреплять файлы к сообщениям
Вы можете скачивать файлы