Крик (Анатолий Резников) [1989, СССР, мультфильм, TVRip]

Ответить на тему
Статистика раздачи [Обновить пиров]
Размер:  31 MB   |    Зарегистрирован:  1 год 11 месяцев   |    Скачан:  0 раз

Полного источника не было: Никогда

 
   
 
 
 
Автор Сообщение

torrentc.info

Создавать темы 12-Мар-2017 09:55

[Цитировать]

Крик
Страна: СССР
Жанр: мультфильм
Продолжительность: 00:02:04
Год выхода: 1989
Перевод: Не требуется
Русские субтитры: нет
Режиссёр: Анатолий Резников
Описание: Притча о скоротечности человеческой жизни.
Доп. информация: В фильме использована музыка Антонио Вивальди.
Качество: TVRip
Формат файла: AVI
Видео: 1960 kbps, 512х384 (4:3), 25.000 fps, MPEG-4 Visual (XviD)
Аудио: 96 kbps, 44.1 kHz, 1 channel, MPEG Audio (MP3)
Субтитры: отсутствуют

Подробные технические данные

GeneralComplete name : Крик 1989.aviFormat : AVIFormat/Info : Audio Video InterleaveFile size : 30.6 MiBDuration : 2mn 4sOverall bit rate : 2 066 Kbps
VideoID : 0Format : MPEG-4 VisualFormat settings, BVOP : 1Format settings, QPel : NoFormat settings, GMC : No warppointsFormat settings, Matrix : Default (H.263)Codec ID : DX50Codec ID/Hint : DivX 5Duration : 2mn 4sBit rate : 1 960 KbpsWidth : 512 pixelsHeight : 384 pixelsDisplay aspect ratio : 4:3Frame rate : 25.000 fpsColor space : YUVChroma subsampling : 4:2:0Bit depth : 8 bitsScan type : ProgressiveCompression mode : LossyBits/(Pixel*Frame) : 0.399Stream size : 29.1 MiB (95%)Writing library : DivX 5.2.1 Beta (UTC 2004-09-08)
AudioID : 1Format : MPEG AudioFormat version : Version 1Format profile : Layer 3Codec ID : 55Codec ID/Hint : MP3Duration : 2mn 4sBit rate mode : ConstantBit rate : 96.0 KbpsChannel(s) : 1 channelSampling rate : 44.1 KHzCompression mode : LossyStream size : 1.42 MiB (5%)Alignment : Split accross interleavesInterleave, duration : 40 ms (1.00 video frame)Interleave, preload duration : 500 ms

Скриншоты



[torrentc.info]_t_5255424.torrent
Торрент: Зарегистрирован ·  [ 2017-03-12 09:54 ] ·  c261cce1da363244e8539cfe061da1bd596fe0d3

20 KB

Статус: проверено
Скачан: 0 раз
Размер: 31 MB
Оценка: 
(Голосов: 0)
Сказали спасибо: 0  Спасибо
Похожие темы
[Профиль]    [ЛС]
Показать сообщения:    
Ответить на тему

Текущее время: Сегодня 16:31

Часовой пояс: GMT + 7



Вы не можете начинать темы
Вы не можете отвечать на сообщения
Вы не можете редактировать свои сообщения
Вы не можете удалять свои сообщения
Вы не можете голосовать в опросах
Вы не можете прикреплять файлы к сообщениям
Вы можете скачивать файлы