Натюрморт (Владимир Самсонов) [1981, СССР, мультфильм, TVRip]

Ответить на тему
Статистика раздачи [Обновить пиров]
Размер:  12 MB   |    Зарегистрирован:  1 год 11 месяцев   |    Скачан:  0 раз

Полного источника не было: Никогда

 
   
 
 
 
Автор Сообщение

torrentc.info

Создавать темы 12-Мар-2017 09:55

[Цитировать]

Натюрморт
Страна: СССР
Жанр: мультфильм
Продолжительность: 00:01:18
Год выхода: 1981
Перевод: Не требуется
Русские субтитры: нет
Режиссёр: Владимир Самсонов
Описание: Один из фильмов Владимира Самсонова, выполненный в технике живописи на стекле. Этюд на музыку Скрябина.
Качество: TVRip
Формат файла: AVI
Видео: 1197 kbps, 656х544 (1.206), 25.000 fps, MPEG-4 Visual (XviD)
Аудио: 96 kbps, 44.1 kHz, 1 channel, MPEG Audio (MP3)
Субтитры: отсутствуют

Подробные технические данные

GeneralComplete name : Натюрморт 1981.aviFormat : AVIFormat/Info : Audio Video InterleaveFile size : 12.2 MiBDuration : 1mn 18sOverall bit rate : 1 303 KbpsWriting application : VirtualDubMod 1.5.10.2 (build 2540/release)Writing library : VirtualDub build 35491/release
VideoID : 0Format : MPEG-4 VisualFormat profile : Simple@L5Format settings, BVOP : NoFormat settings, QPel : NoFormat settings, GMC : No warppointsFormat settings, Matrix : Default (H.263)Codec ID : XVIDCodec ID/Hint : XviDDuration : 1mn 18sBit rate : 1 197 KbpsWidth : 656 pixelsHeight : 544 pixelsDisplay aspect ratio : 1.206Frame rate : 25.000 fpsColor space : YUVChroma subsampling : 4:2:0Bit depth : 8 bitsScan type : ProgressiveCompression mode : LossyBits/(Pixel*Frame) : 0.134Stream size : 11.2 MiB (92%)Writing library : XviD 64
AudioID : 1Format : MPEG AudioFormat version : Version 1Format profile : Layer 3Codec ID : 55Codec ID/Hint : MP3Duration : 1mn 18sBit rate mode : ConstantBit rate : 96.0 KbpsChannel(s) : 1 channelSampling rate : 44.1 KHzCompression mode : LossyStream size : 917 KiB (7%)Alignment : Split accross interleavesInterleave, duration : 40 ms (1.01 video frame)Interleave, preload duration : 500 ms

Скриншоты



[torrentc.info]_t_5256142.torrent
Торрент: Зарегистрирован ·  [ 2017-03-12 09:54 ] ·  c9e1c4eb3a78e315b8f45564572ad31801eed3af

16 KB

Статус: проверено
Скачан: 0 раз
Размер: 12 MB
Оценка: 
(Голосов: 0)
Сказали спасибо: 0  Спасибо
Похожие темы
[Профиль]    [ЛС]
Показать сообщения:    
Ответить на тему

Текущее время: Сегодня 10:14

Часовой пояс: GMT + 7



Вы не можете начинать темы
Вы не можете отвечать на сообщения
Вы не можете редактировать свои сообщения
Вы не можете удалять свои сообщения
Вы не можете голосовать в опросах
Вы не можете прикреплять файлы к сообщениям
Вы можете скачивать файлы