Сорока (Владимир Самсонов) [1982, СССР, мультфильм, TVRip]

Ответить на тему
Статистика раздачи [Обновить пиров]
Размер:  31 MB   |    Зарегистрирован:  1 год 11 месяцев   |    Скачан:  0 раз

Полного источника не было: Никогда

 
   
 
 
 
Автор Сообщение

torrentc.info

Создавать темы 12-Мар-2017 09:55

[Цитировать]

Сорока
Страна: СССР
Жанр: мультфильм
Продолжительность: 00:01:42
Год выхода: 1982
Перевод: Не требуется
Русские субтитры: нет
Режиссёр: Владимир Самсонов
Музыка: Раймонд Паулс
Описание: Этюд про сороку и ёлочную игрушку.
Качество: TVRip
Формат файла: AVI
Видео: 2398 kbps, 576х432 (4:3), 25.000 fps, MPEG-4 Visual (XviD)
Аудио: 96 kbps, 44.1 kHz, 1 channel, MPEG Audio (MP3)
Субтитры: отсутствуют

Подробные технические данные

GeneralComplete name : Сорока 1982.aviFormat : AVIFormat/Info : Audio Video InterleaveFile size : 30.7 MiBDuration : 1mn 42sOverall bit rate : 2 504 Kbps
VideoID : 0Format : MPEG-4 VisualFormat settings, BVOP : 1Format settings, QPel : NoFormat settings, GMC : No warppointsFormat settings, Matrix : Default (H.263)Codec ID : DX50Codec ID/Hint : DivX 5Duration : 1mn 42sBit rate : 2 398 KbpsWidth : 576 pixelsHeight : 432 pixelsDisplay aspect ratio : 4:3Frame rate : 25.000 fpsColor space : YUVChroma subsampling : 4:2:0Bit depth : 8 bitsScan type : ProgressiveCompression mode : LossyBits/(Pixel*Frame) : 0.385Stream size : 29.4 MiB (96%)Writing library : DivX 5.2.1 Beta (UTC 2004-09-08)
AudioID : 1Format : MPEG AudioFormat version : Version 1Format profile : Layer 3Codec ID : 55Codec ID/Hint : MP3Duration : 1mn 42sBit rate mode : ConstantBit rate : 96.0 KbpsChannel(s) : 1 channelSampling rate : 44.1 KHzCompression mode : LossyStream size : 1.18 MiB (4%)Alignment : Split accross interleavesInterleave, duration : 40 ms (1.01 video frame)Interleave, preload duration : 500 ms

Скриншоты



[torrentc.info]_t_5256147.torrent
Торрент: Зарегистрирован ·  [ 2017-03-12 09:54 ] ·  d3c592225f58bebfad3bcc02a5c0b92b1cdd4ddc

20 KB

Статус: проверено
Скачан: 0 раз
Размер: 31 MB
Оценка: 
(Голосов: 0)
Сказали спасибо: 0  Спасибо
Похожие темы
[Профиль]    [ЛС]
Показать сообщения:    
Ответить на тему

Текущее время: Сегодня 14:23

Часовой пояс: GMT + 7



Вы не можете начинать темы
Вы не можете отвечать на сообщения
Вы не можете редактировать свои сообщения
Вы не можете удалять свои сообщения
Вы не можете голосовать в опросах
Вы не можете прикреплять файлы к сообщениям
Вы можете скачивать файлы