Юморески. Выпуск № 2 (Валентин Караваев) [1974, СССР, мультфильм для взрослых, WEBRip]

Ответить на тему
Статистика раздачи [Обновить пиров]
Размер:  59 MB   |    Зарегистрирован:  1 год 11 месяцев   |    Скачан:  0 раз

Полного источника не было: Никогда

 
   
 
 
 
Автор Сообщение

torrentc.info

Создавать темы 12-Мар-2017 09:55

[Цитировать]

Юморески. Выпуск № 2
Страна: СССР
Жанр: мультфильм для взрослых
Продолжительность: 00:07:49
Год выхода: 1974
Режиссёр: Валентин Караваев
Описание: Второй выпуск юмористического альманаха посвящён экологии. Содержит три сюжета: "Пауза", "Открытие", "Оглянись вперёд".
Доп. информация:
Выпуск №1 - [url=viewtopic.php?t=2629645]http://torrentc/forum/viewtopic.php?t=2629645[/url]
Выпуск №3 - [url=viewtopic.php?t=3245917]http://torrentc/forum/viewtopic.php?t=3245917[/url]
Качество: WEBRip
Формат файла: AVI
Видео: 915 kbps, 608х480 (5:4), 25.000 fps, MPEG-4 Visual (XviD)
Аудио: 128 kbps, 44.1 kHz, 2 channels, MPEG Audio (MP3)
Субтитры: отсутствуют

Подробные технические данные

GeneralComplete name : Юморески 2 (1974).aviFormat : AVIFormat/Info : Audio Video InterleaveFile size : 58.9 MiBDuration : 7mn 49sOverall bit rate : 1 053 KbpsWriting library : VirtualDub build 35491/release
VideoID : 0Format : MPEG-4 VisualFormat profile : Advanced Simple@L3Format settings, BVOP : 2Format settings, QPel : NoFormat settings, GMC : No warppointsFormat settings, Matrix : Default (H.263)Codec ID : XVIDCodec ID/Hint : XviDDuration : 7mn 49sBit rate : 915 KbpsWidth : 608 pixelsHeight : 480 pixelsDisplay aspect ratio : 5:4Frame rate : 25.000 fpsColor space : YUVChroma subsampling : 4:2:0Bit depth : 8 bitsScan type : ProgressiveCompression mode : LossyBits/(Pixel*Frame) : 0.125Stream size : 51.2 MiB (87%)Writing library : XviD 64
AudioID : 1Format : MPEG AudioFormat version : Version 1Format profile : Layer 3Codec ID : 55Codec ID/Hint : MP3Duration : 7mn 49sBit rate mode : ConstantBit rate : 128 KbpsChannel(s) : 1 channelSampling rate : 44.1 KHzCompression mode : LossyStream size : 7.14 MiB (12%)Alignment : Split accross interleavesInterleave, duration : 40 ms (1.00 video frame)Interleave, preload duration : 501 ms

Скриншоты



[torrentc.info]_t_5261318.torrent
Торрент: Зарегистрирован ·  [ 2017-03-12 09:54 ] ·  c46cd9417058305a3bc74ddc28f2481fdad13657

19 KB

Статус: проверено
Скачан: 0 раз
Размер: 59 MB
Оценка: 
(Голосов: 0)
Сказали спасибо: 0  Спасибо
Похожие темы
[Профиль]    [ЛС]
Показать сообщения:    
Ответить на тему

Текущее время: Сегодня 10:05

Часовой пояс: GMT + 7



Вы не можете начинать темы
Вы не можете отвечать на сообщения
Вы не можете редактировать свои сообщения
Вы не можете удалять свои сообщения
Вы не можете голосовать в опросах
Вы не можете прикреплять файлы к сообщениям
Вы можете скачивать файлы