Друзья познаются в беде (Михаил Шаров) [1972, СССР, кукольный фильм, WEBRip]

Ответить на тему
Статистика раздачи [Обновить пиров]
Размер:  223 MB   |    Зарегистрирован:  2 года   |    Скачан:  0 раз

Полного источника не было: Никогда

 
   
 
 
 
Автор Сообщение

Пушистый

Создавать темы 12-Мар-2017 09:55

[Цитировать]

Друзья познаются в беде
Страна: СССР
Жанр: кукольный фильм
Продолжительность: 00:17:16
Год выхода: 1972
Перевод: Не требуется
Русские субтитры: нет
Режиссёр: Михаил Шаров
Описание: Лиса Лариска, волк Вова и кот Васька ложно обвиняют зайку Петю в воровстве морковки с огорода. Они рассчитывают, что теперь все друзья от него отвернутся. Но друзья познаются в беде...
Качество: WEBRip
Формат файла: AVI
Видео: 1697 kbps, 592х464 (1.276), 25.000 fps, MPEG-4 Visual (XviD)
Аудио: 96 kbps, 44.1 kHz, 1 channel, MPEG Audio (MP3)
Субтитры: отсутствуют

Подробные технические данные

GeneralComplete name : Друзья познаются в беде.aviFormat : AVIFormat/Info : Audio Video InterleaveFile size : 223 MiBDuration : 17mn 16sOverall bit rate : 1 803 KbpsWriting library : VirtualDub build 35491/release
VideoID : 0Format : MPEG-4 VisualFormat profile : Advanced Simple@L5Format settings, BVOP : 2Format settings, QPel : NoFormat settings, GMC : No warppointsFormat settings, Matrix : Default (H.263)Codec ID : XVIDCodec ID/Hint : XviDDuration : 17mn 16sBit rate : 1 697 KbpsWidth : 592 pixelsHeight : 464 pixelsDisplay aspect ratio : 1.276Frame rate : 25.000 fpsColor space : YUVChroma subsampling : 4:2:0Bit depth : 8 bitsScan type : ProgressiveCompression mode : LossyBits/(Pixel*Frame) : 0.247Stream size : 210 MiB (94%)Writing library : XviD 64
AudioID : 1Format : MPEG AudioFormat version : Version 1Format profile : Layer 3Codec ID : 55Codec ID/Hint : MP3Duration : 17mn 16sBit rate mode : ConstantBit rate : 96.0 KbpsChannel(s) : 1 channelSampling rate : 44.1 KHzCompression mode : LossyStream size : 11.8 MiB (5%)Alignment : Split accross interleavesInterleave, duration : 40 ms (1.00 video frame)Interleave, preload duration : 500 ms

Скриншоты



[torrentc.info]_t_5261735.torrent
Торрент: Зарегистрирован ·  [ 2017-03-12 09:54 ] ·  74a87dce31679046d2a68c5326b83a4b84e60c48

18 KB

Статус: проверено
Скачан: 0 раз
Размер: 223 MB
Оценка: 
(Голосов: 0)
Сказали спасибо: 0  Спасибо
Похожие темы
[Профиль]    [ЛС]
Показать сообщения:    
Ответить на тему

Текущее время: Сегодня 06:10

Часовой пояс: GMT + 7



Вы не можете начинать темы
Вы не можете отвечать на сообщения
Вы не можете редактировать свои сообщения
Вы не можете удалять свои сообщения
Вы не можете голосовать в опросах
Вы не можете прикреплять файлы к сообщениям
Вы можете скачивать файлы