Зайка Петя и волшебный рояль (Михаил Шаров) [1973, СССР, кукольный фильм, WEBRip]

Ответить на тему
Статистика раздачи [Обновить пиров]
Размер:  194 MB   |    Зарегистрирован:  1 год 11 месяцев   |    Скачан:  0 раз

Полного источника не было: Никогда

 
   
 
 
 
Автор Сообщение

torrentc.info

Создавать темы 12-Мар-2017 09:55

[Цитировать]

Зайка Петя и волшебный рояль
Страна: СССР
Жанр: кукольный фильм
Продолжительность: 00:15:05
Год выхода: 1973
Перевод: Не требуется
Русские субтитры: нет
Режиссёр: Михаил Шаров
Описание: В лесу открылась музыкальная школа. Всех зверят записали на обучение, не приняли только волка Вову и медвежонка Мишутку. Лиса Лариска советует им в отместку украсть из школы рояль...
Качество: WEBRip
Формат файла: AVI
Видео: 1695 kbps, 592х464 (1.276), 25.000 fps, MPEG-4 Visual (XviD)
Аудио: 96 kbps, 44.1 kHz, 1 channel, MPEG Audio (MP3)
Субтитры: отсутствуют

Подробные технические данные

GeneralComplete name : Зайка Петя и волшебный рояль.aviFormat : AVIFormat/Info : Audio Video InterleaveFile size : 194 MiBDuration : 15mn 5sOverall bit rate : 1 801 KbpsWriting library : VirtualDub build 35491/release
VideoID : 0Format : MPEG-4 VisualFormat profile : Advanced Simple@L5Format settings, BVOP : 2Format settings, QPel : NoFormat settings, GMC : No warppointsFormat settings, Matrix : Default (H.263)Codec ID : XVIDCodec ID/Hint : XviDDuration : 15mn 5sBit rate : 1 695 KbpsWidth : 592 pixelsHeight : 464 pixelsDisplay aspect ratio : 1.276Frame rate : 25.000 fpsColor space : YUVChroma subsampling : 4:2:0Bit depth : 8 bitsScan type : ProgressiveCompression mode : LossyBits/(Pixel*Frame) : 0.247Stream size : 183 MiB (94%)Writing library : XviD 64
AudioID : 1Format : MPEG AudioFormat version : Version 1Format profile : Layer 3Codec ID : 55Codec ID/Hint : MP3Duration : 15mn 5sBit rate mode : ConstantBit rate : 96.0 KbpsChannel(s) : 1 channelSampling rate : 44.1 KHzCompression mode : LossyStream size : 10.3 MiB (5%)Alignment : Split accross interleavesInterleave, duration : 40 ms (1.00 video frame)Interleave, preload duration : 500 ms

Скриншоты



[torrentc.info]_t_5262725.torrent
Торрент: Зарегистрирован ·  [ 2017-03-12 09:54 ] ·  16c94ee569fe2d92d145bb6dabea436ef06b92fb

16 KB

Статус: проверено
Скачан: 0 раз
Размер: 194 MB
Оценка: 
(Голосов: 0)
Сказали спасибо: 0  Спасибо
Похожие темы
[Профиль]    [ЛС]
Показать сообщения:    
Ответить на тему

Текущее время: Сегодня 16:12

Часовой пояс: GMT + 7



Вы не можете начинать темы
Вы не можете отвечать на сообщения
Вы не можете редактировать свои сообщения
Вы не можете удалять свои сообщения
Вы не можете голосовать в опросах
Вы не можете прикреплять файлы к сообщениям
Вы можете скачивать файлы