Однажды вечером (Франгиз Курбанова) [1985, СССР, мультфильм для взрослых, WEBRip]

Ответить на тему
Статистика раздачи [Обновить пиров]
Размер:  56 MB   |    Зарегистрирован:  1 год 11 месяцев   |    Скачан:  0 раз

Полного источника не было: Никогда

 
   
 
 
 
Автор Сообщение

torrentc.info

Создавать темы 12-Мар-2017 09:54

[Цитировать]

Однажды вечером
Страна: СССР
Жанр: мультфильм для взрослых
Продолжительность: 00:07:38
Год выхода: 1985
Перевод: Не требуется
Русские субтитры: нет
Режиссёр: Франгиз Курбанова
Сценарист: Рустам Ибрагимбеков
Описание: Однажды вечером пришли гости...
Техника - двойная экспозиция разных фактур с живыми актёрами.
Доп. информация: ВКФ 1986, Алма-Ата - Приз жюри "за оригинальное решение актуальной темы"
Качество: WEBRip
Формат файла: AVI
Видео: 830 kbps, 512х400 (1.280), 25.000 fps, MPEG-4 Visual (XviD)
Аудио: 192 kbps, 44.1 kHz, 16 bits, 2 channels, AC-3
Субтитры: отсутствуют

Подробные технические данные

GeneralComplete name : Однажды вечером. 1985.aviFormat : AVIFormat/Info : Audio Video InterleaveFile size : 56.3 MiBDuration : 7mn 38sOverall bit rate : 1 032 KbpsWriting application : VirtualDubMod 1.5.10.3 | www.virtualdub-fr.org || (build 2550/release)Writing library : VirtualDubMod build 2550/release
VideoID : 0Format : MPEG-4 VisualFormat profile : Advanced Simple@L5Format settings, BVOP : 1Format settings, QPel : NoFormat settings, GMC : No warppointsFormat settings, Matrix : CustomCodec ID : XVIDCodec ID/Hint : XviDDuration : 7mn 38sBit rate : 830 KbpsWidth : 512 pixelsHeight : 400 pixelsDisplay aspect ratio : 1.280Frame rate : 25.000 fpsColor space : YUVChroma subsampling : 4:2:0Bit depth : 8 bitsScan type : ProgressiveCompression mode : LossyBits/(Pixel*Frame) : 0.162Stream size : 45.3 MiB (80%)Writing library : XviD 65
AudioID : 1Format : AC-3Format/Info : Audio Coding 3Mode extension : CM (complete main)Format settings, Endianness : BigCodec ID : 2000Duration : 7mn 38sBit rate mode : ConstantBit rate : 192 KbpsChannel(s) : 2 channelsChannel positions : Front: L RSampling rate : 44.1 KHzBit depth : 16 bitsCompression mode : LossyStream size : 10.5 MiB (19%)Alignment : Split accross interleavesInterleave, duration : 40 ms (1.00 video frame)Interleave, preload duration : 500 ms

Скриншоты



[torrentc.info]_t_5263910.torrent
Торрент: Зарегистрирован ·  [ 2017-03-12 09:54 ] ·  6b3d2ec2ef64c9fbe0dd70b3d4c4fb1ed61562ed

18 KB

Статус: проверено
Скачан: 0 раз
Размер: 56 MB
Оценка: 
(Голосов: 0)
Сказали спасибо: 0  Спасибо
Похожие темы
[Профиль]    [ЛС]
Показать сообщения:    
Ответить на тему

Текущее время: Сегодня 09:56

Часовой пояс: GMT + 7



Вы не можете начинать темы
Вы не можете отвечать на сообщения
Вы не можете редактировать свои сообщения
Вы не можете удалять свои сообщения
Вы не можете голосовать в опросах
Вы не можете прикреплять файлы к сообщениям
Вы можете скачивать файлы