Слушай, как тает снег (Светлана Разгуляева) [2009, Россия, мультфильм, WEBRip]

Ответить на тему
Статистика раздачи [Обновить пиров]
Размер:  54 MB   |    Зарегистрирован:  1 год 11 месяцев   |    Скачан:  0 раз

Полного источника не было: Никогда

 
   
 
 
 
Автор Сообщение

torrentc.info

Создавать темы 12-Мар-2017 09:54

[Цитировать]

Слушай, как тает снег
Страна: Россия
Жанр: мультфильм
Продолжительность: 00:06:26
Год выхода: 2009
Перевод: Не требуется
Русские субтитры: нет
Режиссёр: Светлана Разгуляева
Описание: Музыкальный фильм о том, как один человек слышит «музыку тающего снега», а другой – нет. И когда они встречаются, то…
Фильм посвящён памяти поэтессы Зои Ионовой.
Качество: WEBRip
Формат файла: AVI
Видео: 959 kbps, 592х480 (5:4), 25.000 fps, MPEG-4 Visual (XviD)
Аудио: 192 kbps, 44.1 kHz, 2 channels, MPEG Audio (MP3)
Субтитры: отсутствуют

Подробные технические данные

GeneralComplete name : Слушай, как тает снег.aviFormat : AVIFormat/Info : Audio Video InterleaveFile size : 53.5 MiBDuration : 6mn 26sOverall bit rate : 1 161 KbpsDirector : created.with.SUPER(C).v2011.bld.49Writing application : VirtualDubMod 1.5.10.2 (build 2540/release)Writing library : VirtualDubMod build 2540/release
VideoID : 0Format : MPEG-4 VisualFormat profile : Advanced Simple@L4Format settings, BVOP : 2Format settings, QPel : NoFormat settings, GMC : No warppointsFormat settings, Matrix : Default (H.263)Codec ID : XVIDCodec ID/Hint : XviDDuration : 6mn 26sBit rate : 959 KbpsWidth : 592 pixelsHeight : 480 pixelsDisplay aspect ratio : 5:4Frame rate : 25.000 fpsColor space : YUVChroma subsampling : 4:2:0Bit depth : 8 bitsScan type : ProgressiveCompression mode : LossyBits/(Pixel*Frame) : 0.135Stream size : 44.2 MiB (83%)Writing library : XviD 64
AudioID : 1Format : MPEG AudioFormat version : Version 1Format profile : Layer 3Codec ID : 55Codec ID/Hint : MP3Duration : 6mn 26sBit rate mode : ConstantBit rate : 192 KbpsChannel(s) : 2 channelsSampling rate : 44.1 KHzCompression mode : LossyStream size : 8.85 MiB (17%)Alignment : Split accross interleavesInterleave, duration : 40 ms (1.00 video frame)Interleave, preload duration : 500 ms

Скриншоты



[torrentc.info]_t_5264682.torrent
Торрент: Зарегистрирован ·  [ 2017-03-12 09:54 ] ·  5cfe9f1406bae797a0d9be385a930758b1832295

17 KB

Статус: проверено
Скачан: 0 раз
Размер: 54 MB
Оценка: 
(Голосов: 0)
Сказали спасибо: 0  Спасибо
Похожие темы
[Профиль]    [ЛС]
Показать сообщения:    
Ответить на тему

Текущее время: Сегодня 16:05

Часовой пояс: GMT + 7



Вы не можете начинать темы
Вы не можете отвечать на сообщения
Вы не можете редактировать свои сообщения
Вы не можете удалять свои сообщения
Вы не можете голосовать в опросах
Вы не можете прикреплять файлы к сообщениям
Вы можете скачивать файлы