Смелая мама (Александра Лукина) [2014, мультфильм, WEBRip-AVC]

Ответить на тему
Статистика раздачи [Обновить пиров]
Размер:  48 MB   |    Зарегистрирован:  1 год 11 месяцев   |    Скачан:  0 раз

Полного источника не было: Никогда

 
   
 
 
 
Автор Сообщение

torrentc.info

Создавать темы 12-Мар-2017 09:54

[Цитировать]

Смелая мама
Страна: Россия
Жанр: мультфильм
Продолжительность: 00:05:35
Год выхода: 2014
Режиссёр: Александра Лукина
Текст читает: Сергей Пускепалис
Описание: По сказке Сергея Седова про смелую маму, которая очень боялась мышей (а ещё больше - крыс).
Доп. информация: Приз "Лучший детский фильм" - Фестиваль анимационных фильмов «КРОК» (2014)
Приз "За режиссерскую находчивость в поисках формы" - Фестиваль "Мультивидение" (2014)
1 место в номинации «Мультфильм» - Фестиваль «Мультиматограф» (2014)
1 место в номинации «Дебютория» - Фестиваль «Бессонница» (2014)
Диплом в категории "Дебют" - Фестиваль анимационного кино в Суздале (2014)
Качество: WEBRip-AVC
Формат файла: MP4
Видео: 994 kbps, 1280х720 (16:9), 25.000 fps, AVC (High@L3.1)
Аудио: 192 kbps, 44.1 kHz, 2 channels, AAC (LC)
Субтитры: отсутствуют

Подробные технические данные

General
Complete name : Смелая мама (2014).mp4
Format : MPEG-4
Format profile : Base Media / Version 2
Codec ID : mp42
File size : 47.6 MiB
Duration : 5mn 35s
Overall bit rate mode : Variable
Overall bit rate : 1 189 Kbps
Encoded date : UTC 2014-10-06 03:08:03
Tagged date : UTC 2014-10-06 03:08:03
gsst : 0
gstd : 336061
Video
ID : 1
Format : AVC
Format/Info : Advanced Video Codec
Format profile : High@L3.1
Format settings, CABAC : Yes
Format settings, ReFrames : 1 frame
Format settings, GOP : M=1, N=60
Codec ID : avc1
Codec ID/Info : Advanced Video Coding
Duration : 5mn 35s
Bit rate : 994 Kbps
Maximum bit rate : 3 014 Kbps
Width : 1 280 pixels
Height : 720 pixels
Display aspect ratio : 16:9
Frame rate mode : Constant
Frame rate : 25.000 fps
Color space : YUV
Chroma subsampling : 4:2:0
Bit depth : 8 bits
Scan type : Progressive
Bits/(Pixel*Frame) : 0.043
Stream size : 39.8 MiB (84%)
Tagged date : UTC 2014-10-06 03:08:05
Audio
ID : 2
Format : AAC
Format/Info : Advanced Audio Codec
Format profile : LC
Codec ID : 40
Duration : 5mn 35s
Bit rate mode : Variable
Bit rate : 192 Kbps
Maximum bit rate : 204 Kbps
Channel(s) : 2 channels
Channel positions : Front: L R
Sampling rate : 44.1 KHz
Compression mode : Lossy
Stream size : 7.69 MiB (16%)
Title : IsoMedia File Produced by Google, 5-11-2011
Encoded date : UTC 2014-10-06 03:08:04
Tagged date : UTC 2014-10-06 03:08:05

Скриншоты



[torrentc.info]_t_4904947.torrent
Торрент: Зарегистрирован ·  [ 2017-03-12 09:54 ] ·  44254a468d8be6531e32112b96f0fc34a6af6273

15 KB

Статус: проверено
Скачан: 0 раз
Размер: 48 MB
Оценка: 
(Голосов: 0)
Сказали спасибо: 0  Спасибо
Похожие темы
[Профиль]    [ЛС]
Показать сообщения:    
Ответить на тему

Текущее время: Сегодня 09:53

Часовой пояс: GMT + 7



Вы не можете начинать темы
Вы не можете отвечать на сообщения
Вы не можете редактировать свои сообщения
Вы не можете удалять свои сообщения
Вы не можете голосовать в опросах
Вы не можете прикреплять файлы к сообщениям
Вы можете скачивать файлы