Пуговка (Алексей Шелманов) [2010, Россия, мультфильм, WEBRip]

Ответить на тему
Статистика раздачи [Обновить пиров]
Размер:  49 MB   |    Зарегистрирован:  1 год 11 месяцев   |    Скачан:  0 раз

Полного источника не было: Никогда

 
   
 
 
 
Автор Сообщение

torrentc.info

Создавать темы 12-Мар-2017 09:54

[Цитировать]

Пуговка
Страна: Россия
Жанр: мультфильм
Продолжительность: 00:05:08
Год выхода: 2010
Режиссёр: Алексей Шелманов
Песенку поёт: Инна Чурикова
Описание: Шуточная экранизация популярной в советские времена детской песни на стихи Евгения Долматовского.
Качество: WEBRip
Формат файла: AVI
Видео: 1184 kbps, 640х464 (1.379), 25.000 fps, MPEG-4 Visual (XviD)
Аудио: 128 kbps, 44.1 kHz, 2 channels, MPEG Audio (MP3)
Субтитры: отсутствуют

Подробные технические данные

GeneralComplete name : Пуговка (2010).aviFormat : AVIFormat/Info : Audio Video InterleaveFile size : 48.7 MiBDuration : 5mn 8sOverall bit rate : 1 322 KbpsWriting library : VirtualDub build 35491/release
VideoID : 0Format : MPEG-4 VisualFormat profile : Advanced Simple@L5Format settings, BVOP : 2Format settings, QPel : NoFormat settings, GMC : No warppointsFormat settings, Matrix : Default (H.263)Codec ID : XVIDCodec ID/Hint : XviDDuration : 5mn 8sBit rate : 1 184 KbpsWidth : 640 pixelsHeight : 464 pixelsDisplay aspect ratio : 1.379Frame rate : 25.000 fpsColor space : YUVChroma subsampling : 4:2:0Bit depth : 8 bitsScan type : ProgressiveCompression mode : LossyBits/(Pixel*Frame) : 0.160Stream size : 43.6 MiB (90%)Writing library : XviD 64
AudioID : 1Format : MPEG AudioFormat version : Version 1Format profile : Layer 3Mode : Joint stereoCodec ID : 55Codec ID/Hint : MP3Duration : 5mn 8sBit rate mode : ConstantBit rate : 128 KbpsChannel(s) : 2 channelsSampling rate : 44.1 KHzCompression mode : LossyStream size : 4.70 MiB (10%)Alignment : Split accross interleavesInterleave, duration : 40 ms (1.00 video frame)Interleave, preload duration : 501 ms

Скриншоты



[torrentc.info]_t_5267510.torrent
Торрент: Зарегистрирован ·  [ 2017-03-12 09:54 ] ·  6689ed2ff03fbb31c0a861b61167950b9f0fd147

16 KB

Статус: проверено
Скачан: 0 раз
Размер: 49 MB
Оценка: 
(Голосов: 0)
Сказали спасибо: 0  Спасибо
Похожие темы
[Профиль]    [ЛС]
Показать сообщения:    
Ответить на тему

Текущее время: Сегодня 09:45

Часовой пояс: GMT + 7



Вы не можете начинать темы
Вы не можете отвечать на сообщения
Вы не можете редактировать свои сообщения
Вы не можете удалять свои сообщения
Вы не можете голосовать в опросах
Вы не можете прикреплять файлы к сообщениям
Вы можете скачивать файлы