Воробей, который держал слово / The sparrow who kept his word (Дмитрий Геллер) [2010, Россия, мультфильм, WEBRip]

Ответить на тему
Статистика раздачи [Обновить пиров]
Размер:  101 MB   |    Зарегистрирован:  1 год 11 месяцев   |    Скачан:  0 раз

Полного источника не было: Никогда

 
   
 
 
 
Автор Сообщение

torrentc.info

Создавать темы 12-Мар-2017 09:54

[Цитировать]

Воробей, который держал слово / The sparrow who kept his word
Страна: Россия
Жанр: мультфильм
Продолжительность: 00:06:39
Год выхода: 2010
Перевод: не требуется
Русские субтитры: нет
Режиссёр: Дмитрий Геллер
Текст читает: Александр Леньков
Описание: История про маленького, но смелого и честного воробья, который умел держать слово.
Качество: WEBRip
Формат файла: AVI
Видео: 1980 kbps, 624х352 (16:9), 25.000 fps, MPEG-4 Visual (XviD)
Аудио: 128 kbps, 44.1 kHz, 2 channels, MPEG Audio (MP3)
Субтитры: английские (вшитые)

Подробные технические данные

GeneralComplete name : Воробей, который держал слово.aviFormat : AVIFormat/Info : Audio Video InterleaveFile size : 101 MiBDuration : 6mn 39sOverall bit rate : 2 118 KbpsWriting library : VirtualDub build 35491/release
VideoID : 0Format : MPEG-4 VisualFormat profile : Advanced Simple@L4Format settings, BVOP : 2Format settings, QPel : NoFormat settings, GMC : No warppointsFormat settings, Matrix : Default (H.263)Codec ID : XVIDCodec ID/Hint : XviDDuration : 6mn 39sBit rate : 1 980 KbpsWidth : 624 pixelsHeight : 352 pixelsDisplay aspect ratio : 16:9Frame rate : 25.000 fpsColor space : YUVChroma subsampling : 4:2:0Bit depth : 8 bitsScan type : ProgressiveCompression mode : LossyBits/(Pixel*Frame) : 0.361Stream size : 94.4 MiB (94%)Writing library : XviD 64
AudioID : 1Format : MPEG AudioFormat version : Version 1Format profile : Layer 3Mode : Joint stereoMode extension : MS StereoCodec ID : 55Codec ID/Hint : MP3Duration : 6mn 38sBit rate mode : ConstantBit rate : 128 KbpsChannel(s) : 2 channelsSampling rate : 44.1 KHzCompression mode : LossyStream size : 6.06 MiB (6%)Alignment : Split accross interleavesInterleave, duration : 40 ms (1.01 video frame)Interleave, preload duration : 501 ms

Скриншоты



[torrentc.info]_t_5267970.torrent
Торрент: Зарегистрирован ·  [ 2017-03-12 09:54 ] ·  c33e424438c081f7595c0e692e4d8e84efa95cfd

16 KB

Статус: проверено
Скачан: 0 раз
Размер: 101 MB
Оценка: 
(Голосов: 0)
Сказали спасибо: 0  Спасибо
Похожие темы
[Профиль]    [ЛС]
Показать сообщения:    
Ответить на тему

Текущее время: Сегодня 13:53

Часовой пояс: GMT + 7



Вы не можете начинать темы
Вы не можете отвечать на сообщения
Вы не можете редактировать свои сообщения
Вы не можете удалять свои сообщения
Вы не можете голосовать в опросах
Вы не можете прикреплять файлы к сообщениям
Вы можете скачивать файлы