Мама Цапля (Марина Карпова) [2015, Россия, мультфильм, WEBRip-AVC]

Ответить на тему
Статистика раздачи [Обновить пиров]
Размер:  131 MB   |    Зарегистрирован:  1 год 11 месяцев   |    Скачан:  0 раз

Полного источника не было: Никогда

 
   
 
 
 
Автор Сообщение

torrentc.info

Создавать темы 12-Мар-2017 09:54

[Цитировать]

Мама Цапля
Страна: Россия
Жанр: мультфильм
Продолжительность: 00:11:11
Год выхода: 2015
Режиссёр: Марина Карпова
Текст читает: Юлия Рутберг
Описание: Лирическая сказка о болотной цапле, которая при различных обстоятельствах встречает потерянных детёнышей других животных. Из беспечной вертихвостки она превращается в заботливую и мудрую маму.
Доп. информация:
Приз за лучший короткометражный фильм - Фестиваль анимации в Суздале (2016)
Второй приз по разделу "Анимация" - Фестиваль "Лучезарный ангел" (2016)
Третье место по разделу "Премьеры" - Большой фестиваль мультфильмов (2016)
Качество: WEBRip-AVC
Формат файла: MP4
Видео: 1503 kbps, 1280х720 (16:9), 25.000 fps, AVC (High@L3.1)
Аудио: 126 kbps, 44.1 kHz, 2 channels, AAC (LC)
Субтитры: отсутствуют

Подробные технические данные

GeneralComplete name : Мама цапля (2015).mp4Format : MPEG-4Format profile : Base Media / Version 2Codec ID : mp42File size : 131 MiBDuration : 11mn 11sOverall bit rate mode : VariableOverall bit rate : 1 632 KbpsEncoded date : UTC 2016-06-01 18:05:58Tagged date : UTC 2016-06-01 18:05:58gsst : 0gstd : 671776
VideoID : 1Format : AVCFormat/Info : Advanced Video CodecFormat profile : Main@L3.1Format settings, CABAC : YesFormat settings, ReFrames : 3 framesCodec ID : avc1Codec ID/Info : Advanced Video CodingDuration : 11mn 11sBit rate : 1 503 KbpsWidth : 1 280 pixelsHeight : 720 pixelsDisplay aspect ratio : 16:9Frame rate mode : ConstantFrame rate : 25.000 fpsColor space : YUVChroma subsampling : 4:2:0Bit depth : 8 bitsScan type : ProgressiveBits/(Pixel*Frame) : 0.065Stream size : 120 MiB (92%)Title : ISO Media file produced by Google Inc.Encoded date : UTC 2016-06-01 18:05:58Tagged date : UTC 2016-06-01 18:05:58Color primaries : BT.709Transfer characteristics : BT.709Matrix coefficients : BT.709
AudioID : 2Format : AACFormat/Info : Advanced Audio CodecFormat profile : LCCodec ID : 40Duration : 11mn 11sBit rate mode : VariableBit rate : 126 KbpsChannel(s) : 2 channelsChannel positions : Front: L RSampling rate : 44.1 KHzCompression mode : LossyStream size : 10.1 MiB (8%)Title : ISO Media file produced by Google Inc.Encoded date : UTC 2016-06-01 18:05:58Tagged date : UTC 2016-06-01 18:05:58

Скриншоты



[torrentc.info]_t_5270662.torrent
Торрент: Зарегистрирован ·  [ 2017-03-12 09:54 ] ·  7b15223f8457a8e05b99b7b9ddd4f6cc8c479ca5

11 KB

Статус: проверено
Скачан: 0 раз
Размер: 131 MB
Оценка: 
(Голосов: 0)
Сказали спасибо: 0  Спасибо
Похожие темы
[Профиль]    [ЛС]
Показать сообщения:    
Ответить на тему

Текущее время: Сегодня 09:43

Часовой пояс: GMT + 7



Вы не можете начинать темы
Вы не можете отвечать на сообщения
Вы не можете редактировать свои сообщения
Вы не можете удалять свои сообщения
Вы не можете голосовать в опросах
Вы не можете прикреплять файлы к сообщениям
Вы можете скачивать файлы