Штормовое предупреждение (Александра Шадрина) [2010, Россия, мультфильм, WEBRip]

Ответить на тему
Статистика раздачи [Обновить пиров]
Размер:  72 MB   |    Зарегистрирован:  1 год 11 месяцев   |    Скачан:  0 раз

Полного источника не было: Никогда

 
   
 
 
 
Автор Сообщение

torrentc.info

Создавать темы 12-Мар-2017 09:54

[Цитировать]

Штормовое предупреждение
Страна: Россия
Жанр: мультфильм
Продолжительность: 00:07:58
Год выхода: 2010
Перевод: не требуется
Русские субтитры: нет
Режиссёр: Александра Шадрина
Описание: История двух застенчивых людей, внутри и вокруг которых бушует сильный шторм. Любовь при неблагоприятных метеорологических условиях.
Доп. информация: Диплом жюри "За порыв души" на Фестивале анимации в Суздале (2010)
Качество: WEBRip
Формат файла: AVI
Видео: 1064 kbps, 704х528 (4:3), 25.000 fps, MPEG-4 Visual (XviD)
Аудио: 192 kbps, 44.1 kHz, 2 channels, MPEG Audio (MP3)
Субтитры: отсутствуют

Подробные технические данные

GeneralComplete name : Штормовое предупреждение.aviFormat : AVIFormat/Info : Audio Video InterleaveFile size : 72.4 MiBDuration : 7mn 58sOverall bit rate : 1 269 KbpsWriting application : MEncoder SVN-r30881(20100311-gcc4.3.3)Writing library : MPlayer
VideoID : 0Format : MPEG-4 VisualFormat profile : Advanced Simple@L5Format settings, BVOP : 2Format settings, QPel : NoFormat settings, GMC : No warppointsFormat settings, Matrix : Default (H.263)Codec ID : XVIDCodec ID/Hint : XviDDuration : 7mn 58sBit rate : 1 064 KbpsWidth : 704 pixelsHeight : 528 pixelsDisplay aspect ratio : 4:3Frame rate : 25.000 fpsColor space : YUVChroma subsampling : 4:2:0Bit depth : 8 bitsScan type : ProgressiveCompression mode : LossyBits/(Pixel*Frame) : 0.115Stream size : 60.7 MiB (84%)Writing library : XviD 1.2.1 (UTC 2008-12-04)
AudioID : 1Format : MPEG AudioFormat version : Version 1Format profile : Layer 3Mode : Joint stereoMode extension : MS StereoCodec ID : 55Codec ID/Hint : MP3Duration : 7mn 58sBit rate mode : ConstantBit rate : 192 KbpsChannel(s) : 2 channelsSampling rate : 44.1 KHzCompression mode : LossyDelay relative to video : 80msStream size : 10.9 MiB (15%)Alignment : Aligned on interleavesInterleave, duration : 26 ms (0.65 video frame)Interleave, preload duration : 522 msWriting library : LAME3.98

Скриншоты



[torrentc.info]_t_5271151.torrent
Торрент: Зарегистрирован ·  [ 2017-03-12 09:54 ] ·  bd97bd79823f11268c1cb13b6fabe9f7b2ae9c6f

12 KB

Статус: проверено
Скачан: 0 раз
Размер: 72 MB
Оценка: 
(Голосов: 0)
Сказали спасибо: 0  Спасибо
Похожие темы
[Профиль]    [ЛС]
Показать сообщения:    
Ответить на тему

Текущее время: Сегодня 15:56

Часовой пояс: GMT + 7



Вы не можете начинать темы
Вы не можете отвечать на сообщения
Вы не можете редактировать свои сообщения
Вы не можете удалять свои сообщения
Вы не можете голосовать в опросах
Вы не можете прикреплять файлы к сообщениям
Вы можете скачивать файлы