Пароход (Александра Ломизе) [2013, Россия, мультфильм для взрослых, WEBRip]

Ответить на тему
Статистика раздачи [Обновить пиров]
Размер:  76 MB   |    Зарегистрирован:  1 год 11 месяцев   |    Скачан:  0 раз

Полного источника не было: Никогда

 
   
 
 
 
Автор Сообщение

torrentc.info

Создавать темы 12-Мар-2017 09:54

[Цитировать]

Пароход
Страна: Россия
Жанр: мультфильм для взрослых
Продолжительность: 00:05:04
Год выхода: 2013
Перевод: Не требуется
Русские субтитры: нет
Режиссёр: Александра Ломизе
Описание: Фильм о быстротечности времени. Сюжет навеян произведениями Рэя Брэдбери «Вино из одуванчиков» и «Лето, прощай». В них почерпнуты главные символы фильма: одуванчик и пароход.
Доп. информация: Диплом за лучший студенческий фильм на Фестивале анимации в Суздале (2014)
Качество: WEBRip
Формат файла: AVI
Видео: 1938 kbps, 640х480 (4:3), 25.000 fps, MPEG-4 Visual (XviD)
Аудио: 160 kbps, 44.1 kHz, 2 channels, MPEG Audio (MP3)
Субтитры: отсутствуют

Подробные технические данные

GeneralComplete name : Пароход. 2013.aviFormat : AVIFormat/Info : Audio Video InterleaveFile size : 76.4 MiBDuration : 5mn 4sOverall bit rate : 2 107 KbpsWriting library : VirtualDub build 35491/release
VideoID : 0Format : MPEG-4 VisualFormat profile : Advanced Simple@L4Format settings, BVOP : 2Format settings, QPel : NoFormat settings, GMC : No warppointsFormat settings, Matrix : Default (H.263)Codec ID : XVIDCodec ID/Hint : XviDDuration : 5mn 3sBit rate : 1 938 KbpsWidth : 640 pixelsHeight : 480 pixelsDisplay aspect ratio : 4:3Frame rate : 25.000 fpsColor space : YUVChroma subsampling : 4:2:0Bit depth : 8 bitsScan type : ProgressiveCompression mode : LossyBits/(Pixel*Frame) : 0.252Stream size : 70.2 MiB (92%)Writing library : XviD 64
AudioID : 1Format : MPEG AudioFormat version : Version 1Format profile : Layer 3Mode : Joint stereoCodec ID : 55Codec ID/Hint : MP3Duration : 5mn 4sBit rate mode : ConstantBit rate : 160 KbpsChannel(s) : 2 channelsSampling rate : 44.1 KHzCompression mode : LossyStream size : 5.80 MiB (8%)Alignment : Split accross interleavesInterleave, duration : 40 ms (1.00 video frame)Interleave, preload duration : 500 ms

Скриншоты



[torrentc.info]_t_5272549.torrent
Торрент: Зарегистрирован ·  [ 2017-03-12 09:54 ] ·  a13a9a0cb3d50eac65c036d1c170020a7525297f

12 KB

Статус: проверено
Скачан: 0 раз
Размер: 76 MB
Оценка: 
(Голосов: 0)
Сказали спасибо: 0  Спасибо
Похожие темы
[Профиль]    [ЛС]
Показать сообщения:    
Ответить на тему

Текущее время: Сегодня 09:42

Часовой пояс: GMT + 7



Вы не можете начинать темы
Вы не можете отвечать на сообщения
Вы не можете редактировать свои сообщения
Вы не можете удалять свои сообщения
Вы не можете голосовать в опросах
Вы не можете прикреплять файлы к сообщениям
Вы можете скачивать файлы