При выходе не забывайте свои вещи (Нина Бисярина) [2012, Россия, мультфильм, WEBRip]

Ответить на тему
Статистика раздачи [Обновить пиров]
Размер:  86 MB   |    Зарегистрирован:  1 год 11 месяцев   |    Скачан:  0 раз

Полного источника не было: Никогда

 
   
 
 
 
Автор Сообщение

torrentc.info

Создавать темы 12-Мар-2017 09:54

[Цитировать]

При выходе не забывайте свои вещи
Страна: Россия
Жанр: мультфильм
Продолжительность: 00:05:40
Год выхода: 2012
Режиссёр: Нина Бисярина
Описание: Как стать взрослой? Накрасить ногти, самостоятельно подстричь чёлку и отказаться от старой и слишком детской игрушки. Но стоит ли так торопиться?
Доп. информация: Диплом "за абсолютный слух" на Фестивале анимации в Суздале (2013)
Качество: WEBRip
Формат файла: AVI
Видео: 1892 kbps, 720х400 (16:9), 25.000 fps, MPEG-4 Visual (XviD)
Аудио: 224 kbps, 48.0 kHz, 2 channels, MPEG Audio (MP3)
Субтитры: отсутствуют

Подробные технические данные

GeneralComplete name : При выходе не забывайте свои вещи.aviFormat : AVIFormat/Info : Audio Video InterleaveFile size : 86.2 MiBDuration : 5mn 40sOverall bit rate : 2 126 KbpsWriting library : VirtualDub build 35491/release
VideoID : 0Format : MPEG-4 VisualFormat profile : Advanced Simple@L5Format settings, BVOP : 2Format settings, QPel : NoFormat settings, GMC : No warppointsFormat settings, Matrix : Default (H.263)Codec ID : XVIDCodec ID/Hint : XviDDuration : 5mn 40sBit rate : 1 892 KbpsWidth : 720 pixelsHeight : 400 pixelsDisplay aspect ratio : 16:9Frame rate : 25.000 fpsColor space : YUVChroma subsampling : 4:2:0Bit depth : 8 bitsScan type : ProgressiveCompression mode : LossyBits/(Pixel*Frame) : 0.263Stream size : 76.7 MiB (89%)Writing library : XviD 64
AudioID : 1Format : MPEG AudioFormat version : Version 1Format profile : Layer 3Mode : Joint stereoCodec ID : 55Codec ID/Hint : MP3Duration : 5mn 39sBit rate mode : ConstantBit rate : 224 KbpsChannel(s) : 2 channelsSampling rate : 48.0 KHzCompression mode : LossyStream size : 9.08 MiB (11%)Alignment : Split accross interleavesInterleave, duration : 40 ms (1.00 video frame)Interleave, preload duration : 500 ms

Скриншоты



[torrentc.info]_t_5274359.torrent
Торрент: Зарегистрирован ·  [ 2017-03-12 09:54 ] ·  6aa07b993b4e0fcdc4e38f939d9f391cdf1653bd

14 KB

Статус: проверено
Скачан: 0 раз
Размер: 86 MB
Оценка: 
(Голосов: 0)
Сказали спасибо: 0  Спасибо
Похожие темы
[Профиль]    [ЛС]
Показать сообщения:    
Ответить на тему

Текущее время: Сегодня 13:49

Часовой пояс: GMT + 7



Вы не можете начинать темы
Вы не можете отвечать на сообщения
Вы не можете редактировать свои сообщения
Вы не можете удалять свои сообщения
Вы не можете голосовать в опросах
Вы не можете прикреплять файлы к сообщениям
Вы можете скачивать файлы