Редкий вид (Светлана Тугайбей) [2010, Россия, мультфильм для взрослых, WEBRip]

Ответить на тему
Статистика раздачи [Обновить пиров]
Размер:  27 MB   |    Зарегистрирован:  1 год 11 месяцев   |    Скачан:  0 раз

Полного источника не было: Никогда

 
   
 
 
 
Автор Сообщение

torrentc.info

Создавать темы 12-Мар-2017 09:54

[Цитировать]

Редкий вид
Страна: Россия
Жанр: мультфильм для взрослых
Продолжительность: 00:03:59
Год выхода: 2010
Перевод: не требуется
Режиссёр: Светлана Тугайбей
Описание: Фильм о непростых отношениях мужчин и женщин. Сюжет фильма основан на картинах латиноамериканского художника Фернандо Ботеро.
Доп. информация: Диплом жюри "За бережное отношение к мужчинам" на Фестивале анимации в Суздале
Качество: WEBRip
Формат файла: AVI
Видео: 795 kbps, 640х480 (4:3), 25.000 fps, MPEG-4 Visual (XviD)
Аудио: 128 kbps, 44.1 kHz, 2 channels, MPEG Audio (MP3)
Субтитры: отсутствуют

Подробные технические данные

GeneralComplete name : Редкий вид. 2010.aviFormat : AVIFormat/Info : Audio Video InterleaveFile size : 26.6 MiBDuration : 3mn 59sOverall bit rate : 934 KbpsWriting application : VirtualDubMod 1.5.10.2 (build 2540/release)Writing library : VirtualDubMod build 2540/release
VideoID : 0Format : MPEG-4 VisualFormat profile : Advanced Simple@L4Format settings, BVOP : 2Format settings, QPel : NoFormat settings, GMC : No warppointsFormat settings, Matrix : Default (H.263)Codec ID : XVIDCodec ID/Hint : XviDDuration : 3mn 59sBit rate : 795 KbpsWidth : 640 pixelsHeight : 480 pixelsDisplay aspect ratio : 4:3Frame rate : 25.000 fpsColor space : YUVChroma subsampling : 4:2:0Bit depth : 8 bitsScan type : ProgressiveCompression mode : LossyBits/(Pixel*Frame) : 0.104Stream size : 22.7 MiB (85%)Writing library : XviD 64
AudioID : 1Format : MPEG AudioFormat version : Version 1Format profile : Layer 3Codec ID : 55Codec ID/Hint : MP3Duration : 3mn 59sBit rate mode : ConstantBit rate : 128 KbpsChannel(s) : 2 channelsSampling rate : 44.1 KHzCompression mode : LossyStream size : 3.65 MiB (14%)Alignment : Split accross interleavesInterleave, duration : 40 ms (1.00 video frame)Interleave, preload duration : 500 ms

Скриншоты



[torrentc.info]_t_5275428.torrent
Торрент: Зарегистрирован ·  [ 2017-03-12 09:54 ] ·  55d53b399cdfba1e6e21b7d4e08ae6d3ae3d3c6a

17 KB

Статус: проверено
Скачан: 0 раз
Размер: 27 MB
Оценка: 
(Голосов: 0)
Сказали спасибо: 0  Спасибо
Похожие темы
[Профиль]    [ЛС]
Показать сообщения:    
Ответить на тему

Текущее время: Сегодня 15:51

Часовой пояс: GMT + 7



Вы не можете начинать темы
Вы не можете отвечать на сообщения
Вы не можете редактировать свои сообщения
Вы не можете удалять свои сообщения
Вы не можете голосовать в опросах
Вы не можете прикреплять файлы к сообщениям
Вы можете скачивать файлы