Фокус / Focus (Мария Матусевич) [2013, Беларусь, мультфильм, WEBRip]

Ответить на тему
Статистика раздачи [Обновить пиров]
Размер:  60 MB   |    Зарегистрирован:  1 год 11 месяцев   |    Скачан:  0 раз

Полного источника не было: Никогда

 
   
 
 
 
Автор Сообщение

torrentc.info

Создавать темы 12-Мар-2017 09:54

[Цитировать]

Фокус / Focus
Страна: Беларусь
Жанр: мультфильм
Продолжительность: 00:04:42
Год выхода: 2013
Перевод: не требуется
Режиссёр: Мария Матусевич
Описание: Кролик наводит порядок в своей маленькой комнатке. Заводит граммофон и садится с книжкой. Но затишье будет недолгим - приближается... фокус.
Доп. информация:
Диплом жюри - Фестиваль короткометражного кино "Короче" (2013)
Специальное упоминание детского жюри - Фестиваль "Se-Ma-For" (2013)
Приз "Złota Bulba" - Варшавский фестиваль "Bulbamovie" (2013)
Лучший мультфильм международной программы - Фестиваль ВГИКа (2013)
Приз за лучший студенческий фильм - Суздальский Фестиваль Анимации (2014)
Качество: WEBRip
Формат файла: AVI
Видео: 1611 kbps, 720х400 (16:9), 23.976 fps, MPEG-4 Visual (XviD)
Аудио: 160 kbps, 48.0 kHz, 2 channel, MPEG Audio (MP3)
Субтитры: отсутствуют

Подробные технические данные

GeneralComplete name : Фокус (2013).aviFormat : AVIFormat/Info : Audio Video InterleaveFile size : 59.9 MiBDuration : 4mn 42sOverall bit rate : 1 781 KbpsWriting library : VirtualDub build 35491/release
VideoID : 0Format : MPEG-4 VisualFormat profile : Advanced Simple@L5Format settings, BVOP : 2Format settings, QPel : NoFormat settings, GMC : No warppointsFormat settings, Matrix : Default (H.263)Codec ID : XVIDCodec ID/Hint : XviDDuration : 4mn 42sBit rate : 1 611 KbpsWidth : 720 pixelsHeight : 400 pixelsDisplay aspect ratio : 16:9Frame rate : 23.976 fpsColor space : YUVChroma subsampling : 4:2:0Bit depth : 8 bitsScan type : ProgressiveCompression mode : LossyBits/(Pixel*Frame) : 0.233Stream size : 54.2 MiB (90%)Writing library : XviD 64
AudioID : 1Format : MPEG AudioFormat version : Version 1Format profile : Layer 3Mode : Joint stereoCodec ID : 55Codec ID/Hint : MP3Duration : 4mn 42sBit rate mode : ConstantBit rate : 160 KbpsChannel(s) : 2 channelsSampling rate : 48.0 KHzCompression mode : LossyStream size : 5.38 MiB (9%)Alignment : Split accross interleavesInterleave, duration : 42 ms (1.00 video frame)Interleave, preload duration : 500 ms

Скриншоты



[torrentc.info]_t_5276730.torrent
Торрент: Зарегистрирован ·  [ 2017-03-12 09:54 ] ·  12fd61d625504325b6d4b154bd8c774557781873

19 KB

Статус: проверено
Скачан: 0 раз
Размер: 60 MB
Оценка: 
(Голосов: 0)
Сказали спасибо: 0  Спасибо
Похожие темы
[Профиль]    [ЛС]
Показать сообщения:    
Ответить на тему

Текущее время: Сегодня 15:49

Часовой пояс: GMT + 7



Вы не можете начинать темы
Вы не можете отвечать на сообщения
Вы не можете редактировать свои сообщения
Вы не можете удалять свои сообщения
Вы не можете голосовать в опросах
Вы не можете прикреплять файлы к сообщениям
Вы можете скачивать файлы