Про маму (Дина Великовская) [2015, Россия, мультфильм, WEBRip]

Ответить на тему
Статистика раздачи [Обновить пиров]
Размер:  94 MB   |    Зарегистрирован:  1 год 11 месяцев   |    Скачан:  0 раз

Полного источника не было: Никогда

 
   
 
 
 
Автор Сообщение

torrentc.info

Создавать темы 12-Мар-2017 09:54

[Цитировать]

Про маму
Страна: Россия
Жанр: мультфильм
Продолжительность: 00:07:19
Год выхода: 2015
Режиссёр: Дина Великовская
Описание: История про добрую женщину из африканской деревни, у которой было трое сыновей и необыкновенные, очень длинные волосы.
Доп. информация: Диплом "за оригинальную стилистику и образное решение темы" - Фестиваль анимации в Суздале (2015)
1 место в категории "Дебютория" - Фестиваль анимационных фильмов "Бессонница" (2015)
2 место в номинации "Молодая российская анимация" - Большой Фестиваль Мультфильмов (2015)
Диплом жюри - Международный фестиваль-практикум "Кинопроба" (2015)
Лучший фильм - Фестиваль детского и юношеского кино "Ноль плюс" (2015)
Лучший сценарий - Национальная анимационная премии "Икар" (2016)
Лучший анимационный фильм - Фестиваль студенческих и дебютных фильмов "Святая Анна"
Первое место в категории "анимация 18+" - Кинофестиваль в Салерно (Италия)
Лучший анимационный фильм - Фестиваль детского кино во Франкфурте-на-Майне (Германия)
Приз "Серебряные ворота" - Кинофестиваль в Мумбаи (Индия)
Лучший анимационный фильм - Фестиваль студенческого кино "Ранняя птичка" (Болгария)
Лучший студенческий фильм - Международный фестиваль "Animated Dreams" (Эстония)
Приз за лучший дебют - Фестиваль анимационного кино "Tindirindis" в Вильнюсе (Литва)
Лучший анимационный фильм для детей - Фестиваль "El Meu Primer Festival" (Испания)
Приз за лучший студенческий фильм - Штутгартский анимационный фестиваль (Германия)
Гран-при в категории студенческих фильмов - Сеульский фестиваль анимации (Корея)
Диплом жюри - Кинофестиваль в Тампере (Финляндия)
Приз за лучший фильм для детей - Фестиваль анимационного кино в Любляне (Словения)
Приз им. Гермины Тырловой - Фестиваль детско-юношеского кино в Злине (Чехия)
Приз за лучший студенческий фильм - Фестиваль Анимации в Познани (Польша)
Гран-При - Фестиваль детско-юношеского кино в Порту (Португалия)
Качество: WEBRip
Формат файла: AVI
Видео: 1594 kbps, 720х400 (16:9), 25.000 fps, MPEG-4 Visual (XviD)
Аудио: 192 kbps, 44.1 kHz, 2 channels, MPEG Audio (MP3)
Субтитры: отсутствуют

Подробные технические данные

GeneralComplete name : Про маму (2015).aviFormat : AVIFormat/Info : Audio Video InterleaveFile size : 94.3 MiBDuration : 7mn 19sOverall bit rate : 1 799 KbpsWriting application : MEncoder SVN-r30881(20100311-gcc4.3.3)Writing library : MPlayer
VideoID : 0Format : MPEG-4 VisualFormat profile : Advanced Simple@L5Format settings, BVOP : 2Format settings, QPel : NoFormat settings, GMC : No warppointsFormat settings, Matrix : Default (H.263)Codec ID : XVIDCodec ID/Hint : XviDDuration : 7mn 19sBit rate : 1 594 KbpsWidth : 720 pixelsHeight : 400 pixelsDisplay aspect ratio : 16:9Original display aspect ratio : 16:9Frame rate : 25.000 fpsColor space : YUVChroma subsampling : 4:2:0Bit depth : 8 bitsScan type : ProgressiveCompression mode : LossyBits/(Pixel*Frame) : 0.221Stream size : 83.6 MiB (89%)Writing library : XviD 1.2.1 (UTC 2008-12-04)
AudioID : 1Format : MPEG AudioFormat version : Version 1Format profile : Layer 3Mode : Joint stereoMode extension : MS StereoCodec ID : 55Codec ID/Hint : MP3Duration : 7mn 19sBit rate mode : ConstantBit rate : 192 KbpsChannel(s) : 2 channelsSampling rate : 44.1 KHzCompression mode : LossyDelay relative to video : 40msStream size : 10.1 MiB (11%)Alignment : Aligned on interleavesInterleave, duration : 26 ms (0.65 video frame)Interleave, preload duration : 522 ms

Скриншоты



[torrentc.info]_t_5277473.torrent
Торрент: Зарегистрирован ·  [ 2017-03-12 09:54 ] ·  78af7c3e951f7ca6c3e4051b83b3503d8c894799

15 KB

Статус: проверено
Скачан: 0 раз
Размер: 94 MB
Оценка: 
(Голосов: 0)
Сказали спасибо: 0  Спасибо
Похожие темы
[Профиль]    [ЛС]
Показать сообщения:    
Ответить на тему

Текущее время: Сегодня 10:07

Часовой пояс: GMT + 7



Вы не можете начинать темы
Вы не можете отвечать на сообщения
Вы не можете редактировать свои сообщения
Вы не можете удалять свои сообщения
Вы не можете голосовать в опросах
Вы не можете прикреплять файлы к сообщениям
Вы можете скачивать файлы