Мечта / Sapnis (Арнольд Буровс / Arnolds Burovs) [1983, СССР, мультфильм, экранизация, WEBRip] VO + Rus Sub

Ответить на тему
Статистика раздачи [Обновить пиров]
Размер:  206 MB   |    Зарегистрирован:  1 год 11 месяцев   |    Скачан:  0 раз

Полного источника не было: Никогда

 
   
 
 
 
Автор Сообщение

torrentc.info

Создавать темы 12-Мар-2017 09:54

[Цитировать]

Мечта / Sapnis
Страна: СССР
Жанр: мультфильм, экранизация
Продолжительность: 00:17:41
Год выхода: 1983
Перевод: Любительский (одноголосый закадровый) progulkin
Русские субтитры: есть
Режиссёр: Арнольд Буровс / Arnolds Burovs
Композитор: Раймонд Паулс / Raimonds Pauls
Описание: По рассказу О.Генри "Фараон и хорал".
Наступают холода и бродяга Соппи (по воле режиссёра имеющий внешность Чарли Чаплина) подумывает о тёплом пристанище, которым может стать тюрьма. Соппи пытается совершить какое-нибудь правонарушение и быть арестованным, но это оказывается не так просто.
Доп. информация: Диплом за музыкальное решение - Всесоюзный Кинофестиваль, Киев 1984.
Качество: WEBRip
Формат файла: AVI
Видео: 1494 kbps, 512х483 (4:3), 25.000 fps, MPEG-4 Visual (XviD)
Аудио: 128 kbps, 48.0 kHz, 2 channel, MPEG Audio (MP3)
Субтитры: hardsub

Подробные технические данные

GeneralComplete name : Sapnis (1983).aviFormat : AVIFormat/Info : Audio Video InterleaveFile size : 206 MiBDuration : 17mn 41sOverall bit rate : 1 631 KbpsWriting application : VirtualDubMod 1.5.10.2 (build 2540/release)Writing library : VirtualDub build 35491/release
VideoID : 0Format : MPEG-4 VisualFormat profile : Advanced Simple@L4Format settings, BVOP : 2Format settings, QPel : NoFormat settings, GMC : No warppointsFormat settings, Matrix : Default (H.263)Codec ID : XVIDCodec ID/Hint : XviDDuration : 17mn 41sBit rate : 1 494 KbpsWidth : 512 pixelsHeight : 384 pixelsDisplay aspect ratio : 4:3Frame rate : 25.000 fpsColor space : YUVChroma subsampling : 4:2:0Bit depth : 8 bitsScan type : ProgressiveCompression mode : LossyBits/(Pixel*Frame) : 0.304Stream size : 189 MiB (92%)Writing library : XviD 64
AudioID : 1Format : MPEG AudioFormat version : Version 1Format profile : Layer 3Mode : Joint stereoMode extension : MS StereoCodec ID : 55Codec ID/Hint : MP3Duration : 17mn 41sBit rate mode : ConstantBit rate : 128 KbpsChannel(s) : 2 channelsSampling rate : 48.0 KHzCompression mode : LossyStream size : 16.2 MiB (8%)Alignment : Aligned on interleavesInterleave, duration : 40 ms (1.00 video frame)Interleave, preload duration : 504 ms

Скриншоты



[torrentc.info]_t_5279709.torrent
Торрент: Зарегистрирован ·  [ 2017-03-12 09:54 ] ·  6597b4c9f4a5e6a4783e652fb98a6a94f702f32d

17 KB

Статус: проверено
Скачан: 0 раз
Размер: 206 MB
Оценка: 
(Голосов: 0)
Сказали спасибо: 0  Спасибо
Похожие темы
[Профиль]    [ЛС]
Показать сообщения:    
Ответить на тему

Текущее время: Сегодня 16:17

Часовой пояс: GMT + 7



Вы не можете начинать темы
Вы не можете отвечать на сообщения
Вы не можете редактировать свои сообщения
Вы не можете удалять свои сообщения
Вы не можете голосовать в опросах
Вы не можете прикреплять файлы к сообщениям
Вы можете скачивать файлы