Война птиц и зверей / Lindude ja loomade sõda (Хейно Парс / Heino Pars) [1969, СССР, мультфильм, TVRip] MVO

Ответить на тему
Статистика раздачи [Обновить пиров]
Размер:  185 MB   |    Зарегистрирован:  1 год 11 месяцев   |    Скачан:  0 раз

Полного источника не было: Никогда

 
   
 
 
 
Автор Сообщение

torrentc.info

Создавать темы 12-Мар-2017 09:54

[Цитировать]

Война птиц и зверей / Lindude ja loomade sõda
Страна: СССР (Эстонская республика)
Жанр: мультфильм
Продолжительность: 00:09:44
Год выхода: 1969
Перевод: Любительский (многоголосый закадровый)
Режиссёр: Хейно Парс / Heino Pars
Русская озвучка: progulkin & Co
Описание: По мотивам эстонской народной сказки.
Медведь хочет разрушить птичье гнездо, но птицы вступаются за его хозяйку. Медведь тоже находит поддержку от зверей. Слово за слово, и вот уже птицы и звери договариваются об общей битве, чтобы выяснить кто главнее...
Качество: TVRip
Формат файла: AVI
Видео: 2389 kbps, 640х496 (1.290), 25.000 fps, MPEG-4 Visual (XviD)
Аудио 1 (рус): 128 kbps, 48.0 kHz, 2 channels, MPEG Audio (MP3)
Аудио 2 (эст): 128 kbps, 44.1 kHz, 2 channels, MPEG Audio (MP3)
Субтитры: отсутствуют

Подробные технические данные

GeneralComplete name : Lindude ja loomade sõda (1969).aviFormat : AVIFormat/Info : Audio Video InterleaveFile size : 185 MiBDuration : 9mn 44sOverall bit rate : 2 660 KbpsMovie name : Lindude ja loomade sхda [1969] EST/PDTVrip/FS/XviD/MP2 2chDirector : Heino Pars [Tallinnfilm]Subject : http://www.imdb.com/title/tt0452308/Writing application : VirtualDubMod 1.5.10.2 (build 2540/release)Writing library : VirtualDubMod build 2540/releaseCopyright : (stolen by) BPDcarrier for .EE folksComment : Lindude.ja.loomade.soda.1969.PDTV.iNTERNAL.XviD-BPDcarrier.avi
VideoID : 0Format : MPEG-4 VisualFormat profile : Advanced Simple@L5Format settings, BVOP : 2Format settings, QPel : NoFormat settings, GMC : No warppointsFormat settings, Matrix : Default (H.263)Codec ID : XVIDCodec ID/Hint : XviDDuration : 9mn 44sBit rate : 2 389 KbpsWidth : 640 pixelsHeight : 496 pixelsDisplay aspect ratio : 1.290Frame rate : 25.000 fpsColor space : YUVChroma subsampling : 4:2:0Bit depth : 8 bitsScan type : ProgressiveCompression mode : LossyBits/(Pixel*Frame) : 0.301Stream size : 167 MiB (90%)Writing library : XviD 64
Audio #1ID : 1Format : MPEG AudioFormat version : Version 1Format profile : Layer 3Mode : Joint stereoMode extension : MS StereoCodec ID : 55Codec ID/Hint : MP3Duration : 9mn 44sBit rate mode : ConstantBit rate : 128 KbpsChannel(s) : 2 channelsSampling rate : 48.0 KHzCompression mode : LossyStream size : 8.92 MiB (5%)Alignment : Aligned on interleavesInterleave, duration : 40 ms (1.00 video frame)Interleave, preload duration : 504 ms
Audio #2ID : 2Format : MPEG AudioFormat version : Version 1Format profile : Layer 3Codec ID : 55Codec ID/Hint : MP3Duration : 9mn 44sBit rate mode : ConstantBit rate : 128 KbpsChannel(s) : 2 channelsSampling rate : 44.1 KHzCompression mode : LossyStream size : 8.92 MiB (5%)Alignment : Split accross interleavesInterleave, duration : 40 ms (1.00 video frame)Interleave, preload duration : 500 ms

Скриншоты



[torrentc.info]_t_5280000.torrent
Торрент: Зарегистрирован ·  [ 2017-03-12 09:54 ] ·  54db45dabc9965bf6576a92dc9638e0c0566a5a8

15 KB

Статус: проверено
Скачан: 0 раз
Размер: 185 MB
Оценка: 
(Голосов: 0)
Сказали спасибо: 0  Спасибо
Похожие темы
[Профиль]    [ЛС]
Показать сообщения:    
Ответить на тему

Текущее время: Сегодня 14:12

Часовой пояс: GMT + 7



Вы не можете начинать темы
Вы не можете отвечать на сообщения
Вы не можете редактировать свои сообщения
Вы не можете удалять свои сообщения
Вы не можете голосовать в опросах
Вы не можете прикреплять файлы к сообщениям
Вы можете скачивать файлы