Андрей Хижина и его горе (Алексей Демин) [2015, РФ, мультфильм, DVDScreener]

Ответить на тему
Статистика раздачи [Обновить пиров]
Размер:  287 MB   |    Зарегистрирован:  1 год 11 месяцев   |    Скачан:  0 раз

Полного источника не было: Никогда

 
   
 
 
 
Автор Сообщение

torrentc.info

Создавать темы 12-Мар-2017 09:54

[Цитировать]

Андрей Хижина и его горе
Страна: РФ
Жанр: мультфильм
Продолжительность: 00:16:12
Год выхода: 2015
Русские субтитры: нет
Режиссёр: Алексей Демин
Описание: История об Андрее Хижине, его жене Вареньке, дяде Кузьме Кузьмиче и одном непрошеном госте. Действие фильма разворачивается в 30-х годах прошлого века.
В основе сюжета - рассказ замечательного ленинградского писателя Давида Дара.
Музыку написал Андрей Семёнов, а озвучил фильм Сергей Дрейден.
Доп. информация: Приз за «Лучший профессиональный короткомертажный фильм» с особой отметкой жюри музыки Андрея Семёнова и голоса актёра Сергея Дрейдена, на 20-м Открытом российском фестивале анимационного кино в г.Суздале (2015г.)
Качество: DVDScreener
Формат файла: AVI
Видео: DIVX, 720x400, 25fps, 2276kbps
Аудио: MPEG Layer 3, 48kHz, 2ch, 192kbps
Субтитры: отсутствуют

Подробные технические данные

GeneralComplete name : Хижина.aviFormat : AVIFormat/Info : Audio Video InterleaveFile size : 287 MiBDuration : 16mn 12sOverall bit rate : 2 478 KbpsWriting application : VirtualDubMod 1.5.10.3 | www.virtualdub-fr.org || (build 2550/release)Writing library : VirtualDubMod build 2550/release
VideoID : 0Format : MPEG-4 VisualFormat profile : Simple@L1Format settings, BVOP : NoFormat settings, QPel : NoFormat settings, GMC : No warppointsFormat settings, Matrix : Default (H.263)Codec ID : DIVXCodec ID/Info : Project MayoCodec ID/Hint : DivX 4Duration : 16mn 12sBit rate : 2 276 KbpsWidth : 720 pixelsHeight : 400 pixelsDisplay aspect ratio : 16:9Frame rate : 25.000 fpsColor space : YUVChroma subsampling : 4:2:0Bit depth : 8 bitsScan type : ProgressiveCompression mode : LossyBits/(Pixel*Frame) : 0.316Stream size : 264 MiB (92%)Writing library : Lavc53.33.0
AudioID : 1Format : MPEG AudioFormat version : Version 1Format profile : Layer 3Codec ID : 55Codec ID/Hint : MP3Duration : 16mn 12sBit rate mode : ConstantBit rate : 192 KbpsChannel count : 2 channelsSampling rate : 48.0 KHzCompression mode : LossyStream size : 22.2 MiB (8%)Alignment : Aligned on interleavesInterleave, duration : 40 ms (1.00 video frame)Interleave, preload duration : 504 msWriting library : LAME3.99rEncoding settings : -m s -V 4 -q 2 -lowpass 18.6 -b 192

Скриншоты





[torrentc.info]_t_5282002.torrent
Торрент: Зарегистрирован ·  [ 2017-03-12 09:54 ] ·  0bef1d0a338130916a16b12b783c0e0dc43dc2c4

12 KB

Статус: проверено
Скачан: 0 раз
Размер: 287 MB
Оценка: 
(Голосов: 0)
Сказали спасибо: 0  Спасибо
Похожие темы
[Профиль]    [ЛС]
Показать сообщения:    
Ответить на тему

Текущее время: Сегодня 16:07

Часовой пояс: GMT + 7



Вы не можете начинать темы
Вы не можете отвечать на сообщения
Вы не можете редактировать свои сообщения
Вы не можете удалять свои сообщения
Вы не можете голосовать в опросах
Вы не можете прикреплять файлы к сообщениям
Вы можете скачивать файлы