Сказки старого пианино: Шопен (Ирина Кодюкова) [2014, Россия, Беларусь, мультфильм, WEBRip]

Ответить на тему
Статистика раздачи [Обновить пиров]
Размер:  197 MB   |    Зарегистрирован:  1 год 11 месяцев   |    Скачан:  0 раз

Полного источника не было: Никогда

 
   
 
 
 
Автор Сообщение

torrentc.info

Создавать темы 12-Мар-2017 09:54

[Цитировать]

Сказки старого пианино: Шопен
Страна: Россия, Беларусь
Жанр: мультфильм
Продолжительность: 00:13:10
Год выхода: 2014
Русские субтитры: нет
Режиссёр: Ирина Кодюкова
Описание: Жизнь Фредерика Шопена была короткой. В ней не было особенных внешних потрясений, но она была полна глубоких личных переживаний. В фильме биография Шопена передана через его беседы с Жорж Санд и ее детьми.
Доп. информация: Фильм - участник конкурсной программы фестиваля Суздаль-2015
Качество: WEBRip
Формат файла: AVI
Видео: DIVX, 720x416, 25,00 fps, 1895kbps
Аудио: MPEG Layer 3, 48kHz, 2ch, 192kbps
Субтитры: отсутствуют

Подробные технические данные

GeneralComplete name : Шопен.aviFormat : AVIFormat/Info : Audio Video InterleaveFile size : 197 MiBDuration : 13mn 10sOverall bit rate : 2 096 KbpsWriting application : VirtualDubMod 1.5.10.3 | www.virtualdub-fr.org || (build 2550/release)Writing library : VirtualDubMod build 2550/release
VideoID : 0Format : MPEG-4 VisualFormat profile : Simple@L1Format settings, BVOP : NoFormat settings, QPel : NoFormat settings, GMC : No warppointsFormat settings, Matrix : Default (H.263)Codec ID : DIVXCodec ID/Info : Project MayoCodec ID/Hint : DivX 4Duration : 13mn 10sBit rate : 1 895 KbpsWidth : 720 pixelsHeight : 416 pixelsDisplay aspect ratio : 1.731Frame rate : 25.000 fpsColor space : YUVChroma subsampling : 4:2:0Bit depth : 8 bitsScan type : ProgressiveCompression mode : LossyBits/(Pixel*Frame) : 0.253Stream size : 178 MiB (90%)Writing library : Lavc53.33.0
AudioID : 1Format : MPEG AudioFormat version : Version 1Format profile : Layer 3Codec ID : 55Codec ID/Hint : MP3Duration : 13mn 10sBit rate mode : ConstantBit rate : 192 KbpsChannel count : 2 channelsSampling rate : 48.0 KHzCompression mode : LossyStream size : 18.1 MiB (9%)Alignment : Aligned on interleavesInterleave, duration : 40 ms (1.00 video frame)Interleave, preload duration : 504 msWriting library : LAME3.99rEncoding settings : -m s -V 4 -q 2 -lowpass 18.6 -b 192

Скриншоты





[torrentc.info]_t_5282082.torrent
Торрент: Зарегистрирован ·  [ 2017-03-12 09:54 ] ·  b690bd0f356bd34e9a93402b7ab09c87d5411252

16 KB

Статус: проверено
Скачан: 0 раз
Размер: 197 MB
Оценка: 
(Голосов: 0)
Сказали спасибо: 0  Спасибо
Похожие темы
[Профиль]    [ЛС]
Показать сообщения:    
Ответить на тему

Текущее время: Сегодня 09:53

Часовой пояс: GMT + 7



Вы не можете начинать темы
Вы не можете отвечать на сообщения
Вы не можете редактировать свои сообщения
Вы не можете удалять свои сообщения
Вы не можете голосовать в опросах
Вы не можете прикреплять файлы к сообщениям
Вы можете скачивать файлы