Москвичок (Иосиф Боярский) [1963, СССР, мультфильм для взрослых, TVRip]

Ответить на тему
Статистика раздачи [Обновить пиров]
Размер:  108 MB   |    Зарегистрирован:  1 год 11 месяцев   |    Скачан:  0 раз

Полного источника не было: Никогда

 
   
 
 
 
Автор Сообщение

torrentc.info

Создавать темы 12-Мар-2017 09:54

[Цитировать]

Москвичок
Страна: СССР
Жанр: мультфильм для взрослых
Продолжительность: 00:07:19
Год выхода: 1963
Режиссёр: Иосиф Боярский
Описание: Киношутка о нарушителях правил уличного движения.
Качество: TVRip
Формат файла: AVI
Видео: 1965 kbps, 512х384 (4:3), 25.000 fps, MPEG-4 Visual (XviD)
Аудио: 96 kbps, 48.0 kHz, 1 channel, MPEG Audio (MP3)
Субтитры: отсутствуют

Подробные технические данные

GeneralComplete name : Москвичок. 1963.aviFormat : AVIFormat/Info : Audio Video InterleaveFile size : 108 MiBDuration : 7mn 19sOverall bit rate : 2 071 KbpsMovie name : MoskvichokDirector : Sojuzmul'tfil'mRecorded date : 1963Writing application : VirtualDubMod 1.5.10.2 (build 2540/release)Writing library : VirtualDubMod build 2540/releaseComment : TVrip by Turtle / XviD 1.1.3 @ 0,40 bpp / Lame MP3 48 kHz Mono @ 96 kbps
VideoID : 0Format : MPEG-4 VisualFormat profile : Advanced Simple@L5Format settings, BVOP : 1Format settings, QPel : NoFormat settings, GMC : No warppointsFormat settings, Matrix : Default (MPEG)Codec ID : XVIDCodec ID/Hint : XviDDuration : 7mn 19sBit rate : 1 965 KbpsWidth : 512 pixelsHeight : 384 pixelsDisplay aspect ratio : 4:3Frame rate : 25.000 fpsColor space : YUVChroma subsampling : 4:2:0Bit depth : 8 bitsScan type : ProgressiveCompression mode : LossyBits/(Pixel*Frame) : 0.400Stream size : 103 MiB (95%)Writing library : XviD 1.1.2 (UTC 2006-11-01)
AudioID : 1Format : MPEG AudioFormat version : Version 1Format profile : Layer 3Codec ID : 55Codec ID/Hint : MP3Duration : 7mn 19sBit rate mode : ConstantBit rate : 96.0 KbpsChannel(s) : 1 channelSampling rate : 48.0 KHzCompression mode : LossyStream size : 5.03 MiB (5%)Alignment : Split accross interleavesInterleave, duration : 40 ms (1.00 video frame)Interleave, preload duration : 500 ms

Скриншоты



[torrentc.info]_t_5283355.torrent
Торрент: Зарегистрирован ·  [ 2017-03-12 09:54 ] ·  225b1dd4fc48fc7edf51f0977c073f7b65c33f1d

18 KB

Статус: проверено
Скачан: 0 раз
Размер: 108 MB
Оценка: 
(Голосов: 0)
Сказали спасибо: 0  Спасибо
Похожие темы
[Профиль]    [ЛС]
Показать сообщения:    
Ответить на тему

Текущее время: Сегодня 09:52

Часовой пояс: GMT + 7



Вы не можете начинать темы
Вы не можете отвечать на сообщения
Вы не можете редактировать свои сообщения
Вы не можете удалять свои сообщения
Вы не можете голосовать в опросах
Вы не можете прикреплять файлы к сообщениям
Вы можете скачивать файлы