Пастораль (Игорь Волчек) [1998, Беларусь, мультфильм для взрослых, WEBRip]

Ответить на тему
Статистика раздачи [Обновить пиров]
Размер:  137 MB   |    Зарегистрирован:  1 год 11 месяцев   |    Скачан:  0 раз

Полного источника не было: Никогда

 
   
 
 
 
Автор Сообщение

torrentc.info

Создавать темы 12-Мар-2017 09:54

[Цитировать]

Пастораль
Страна: Беларусь
Жанр: мультфильм для взрослых
Продолжительность: 00:13:20
Год выхода: 1998
Перевод: не требуется
Режиссёр: Игорь Волчек
Описание: Зарисовка из сельской жизни, основанная на личных впечатлениях Игоря Волчека после того, как он сам поселился в деревне. Фильм посвящён памяти его соседа Петровича, который любил рыбалку... и выпивку.
Качество: WEBRip
Формат файла: AVI
Видео: 1295 kbps, 624х464 (4:3), 25.000 fps, MPEG-4 Visual (XviD)
Аудио: 128 kbps, 44.1 kHz, 2 channels, MPEG Audio (MP3)
Субтитры: отсутствуют

Подробные технические данные

GeneralComplete name : Пастораль (1998).aviFormat : AVIFormat/Info : Audio Video InterleaveFile size : 137 MiBDuration : 13mn 20sOverall bit rate : 1 432 KbpsWriting application : VirtualDubMod 1.5.10.2 (build 2540/release)Writing library : VirtualDubMod build 2540/release
VideoID : 0Format : MPEG-4 VisualFormat profile : Advanced Simple@L4Format settings, BVOP : 2Format settings, QPel : NoFormat settings, GMC : No warppointsFormat settings, Matrix : Default (H.263)Codec ID : XVIDCodec ID/Hint : XviDDuration : 13mn 20sBit rate : 1 295 KbpsWidth : 624 pixelsHeight : 464 pixelsDisplay aspect ratio : 4:3Frame rate : 25.000 fpsColor space : YUVChroma subsampling : 4:2:0Bit depth : 8 bitsScan type : ProgressiveCompression mode : LossyBits/(Pixel*Frame) : 0.179Stream size : 124 MiB (90%)Writing library : XviD 64
AudioID : 1Format : MPEG AudioFormat version : Version 1Format profile : Layer 3Codec ID : 55Codec ID/Hint : MP3Duration : 13mn 20sBit rate mode : ConstantBit rate : 128 KbpsChannel(s) : 2 channelsSampling rate : 44.1 KHzCompression mode : LossyStream size : 12.2 MiB (9%)Alignment : Split accross interleavesInterleave, duration : 40 ms (1.00 video frame)Interleave, preload duration : 500 ms

Скриншоты



[torrentc.info]_t_5283490.torrent
Торрент: Зарегистрирован ·  [ 2017-03-12 09:54 ] ·  14c68cc4110d55b055283df2b9a6f56ffbe27af5

11 KB

Статус: проверено
Скачан: 0 раз
Размер: 137 MB
Оценка: 
(Голосов: 0)
Сказали спасибо: 0  Спасибо
Похожие темы
[Профиль]    [ЛС]
Показать сообщения:    
Ответить на тему

Текущее время: Сегодня 13:58

Часовой пояс: GMT + 7



Вы не можете начинать темы
Вы не можете отвечать на сообщения
Вы не можете редактировать свои сообщения
Вы не можете удалять свои сообщения
Вы не можете голосовать в опросах
Вы не можете прикреплять файлы к сообщениям
Вы можете скачивать файлы