Аргентинская колыбельная (Елизавета Скворцова) [2009, Россия, музыкальный мультфильм, WEBRip] из цикла "Колыбельные Мира"

Ответить на тему
Статистика раздачи [Обновить пиров]
Размер:  57 MB   |    Зарегистрирован:  1 год 11 месяцев   |    Скачан:  0 раз

Полного источника не было: Никогда

 
   
 
 
 
Автор Сообщение

torrentc.info

Создавать темы 12-Мар-2017 09:54

[Цитировать]

Аргентинская колыбельная
Страна: Россия
Жанр: музыкальный мультфильм
Продолжительность: 00:04:06
Год выхода: 2009
Режиссёр: Елизавета Скворцова
Поёт: Беатрис Пичи Мален / Beatriz Pichi Malén
Описание: Аргентинская колыбельная песня. Исполняется на языке мапуче - языке коренного населения Южной Америки. Перед началом детский рассказ про Аргентину.
Доп. информация: Мультфильм из цикла "Колыбельные Мира".
Предыдущие серии здесь - [url=viewtopic.php?t=2458663]http://torrentc/forum/viewtopic.php?t=2458663[/url]
Качество: WEBRip
Формат файла: AVI
Видео: 1783 kbps, 608х480 (5:4), 25.000 fps, MPEG-4 Visual (XviD)
Аудио: 128 kbps, 44.1 kHz, 2 channels, MPEG Audio (MP3)
Субтитры: отсутствуют

Подробные технические данные

GeneralComplete name : Аргентинская колыбельная.aviFormat : AVIFormat/Info : Audio Video InterleaveFile size : 56.5 MiBDuration : 4mn 6sOverall bit rate : 1 920 KbpsWriting application : Lavf55.33.100Writing library : VirtualDub build 35491/release
VideoID : 0Format : MPEG-4 VisualFormat profile : Advanced Simple@L4Format settings, BVOP : 2Format settings, QPel : NoFormat settings, GMC : No warppointsFormat settings, Matrix : Default (H.263)Codec ID : XVIDCodec ID/Hint : XviDDuration : 4mn 6sBit rate : 1 783 KbpsWidth : 608 pixelsHeight : 480 pixelsDisplay aspect ratio : 5:4Frame rate : 25.000 fpsColor space : YUVChroma subsampling : 4:2:0Bit depth : 8 bitsScan type : ProgressiveCompression mode : LossyBits/(Pixel*Frame) : 0.244Stream size : 52.5 MiB (93%)Writing library : XviD 64
AudioID : 1Format : MPEG AudioFormat version : Version 1Format profile : Layer 3Mode : Joint stereoMode extension : MS StereoCodec ID : 55Codec ID/Hint : MP3Duration : 4mn 6sBit rate mode : ConstantBit rate : 128 KbpsChannel(s) : 2 channelsSampling rate : 44.1 KHzCompression mode : LossyStream size : 3.76 MiB (7%)Alignment : Split accross interleavesInterleave, duration : 40 ms (1.00 video frame)Interleave, preload duration : 500 ms

Скриншоты

Текст и перевод колыбельной

Gumayta puñén may, gumayta puñén may
Kupage guru may, kupage guru may
Xa pita puñén may, xa pita puñén may
Amutugué guru may, xa pita puñén may
Amutugué guru may
kupaytá guru may, amutugué guru may
umutugué puñén may, xa pita puñén may,
xa pita puñén may, xa pita puñén may…
_________________________________
Дети плачут, дети плачут -
Лисы пришли, лисы пришли.
Дети боятся, дети боятся.
Уходите, лисы, уходите -
Дети боятся.
Спите, дети, спите.
Это не лисы, а листья...


[torrentc.info]_t_5283872.torrent
Торрент: Зарегистрирован ·  [ 2017-03-12 09:54 ] ·  b10dfec6c4517985cfda434b7e549d2f11b17b90

18 KB

Статус: проверено
Скачан: 0 раз
Размер: 57 MB
Оценка: 
(Голосов: 0)
Сказали спасибо: 0  Спасибо
Похожие темы
[Профиль]    [ЛС]
Показать сообщения:    
Ответить на тему

Текущее время: Сегодня 16:03

Часовой пояс: GMT + 7



Вы не можете начинать темы
Вы не можете отвечать на сообщения
Вы не можете редактировать свои сообщения
Вы не можете удалять свои сообщения
Вы не можете голосовать в опросах
Вы не можете прикреплять файлы к сообщениям
Вы можете скачивать файлы