Лебединое пёрышко (Лидия Сурикова) [1985, СССР, мультфильм, сказка, WEBRip]

Ответить на тему
Статистика раздачи [Обновить пиров]
Размер:  82 MB   |    Зарегистрирован:  1 год 11 месяцев   |    Скачан:  0 раз

Полного источника не было: Никогда

 
   
 
 
 
Автор Сообщение

torrentc.info

Создавать темы 12-Мар-2017 09:54

[Цитировать]

Лебединое пёрышко
Страна: СССР
Жанр: мультфильм, сказка
Продолжительность: 00:10:06
Год выхода: 1985
Режиссёр: Лидия Сурикова
Описание: По мотивам амурских сказок.
Жила в охотничьем стойбище женщина по имени Чольчинай. Не было у неё детей. Однажды упало с неба лебединое пёрышко, а Чольчинай положила его в колыбель и стала укачивать. Превратилось пёрышко в девочку...
Качество: WEBRip
Формат файла: AVI
Видео: 998 kbps, 640х480 (4:3), 25.000 fps, MPEG-4 Visual (XviD)
Аудио: 128 kbps, 44.1 kHz, 2 channels, MPEG Audio (MP3)
Субтитры: отсутствуют

Подробные технические данные

GeneralComplete name : Лебединое пёрышко. 1985.aviFormat : AVIFormat/Info : Audio Video InterleaveFile size : 82.1 MiBDuration : 10mn 6sOverall bit rate : 1 136 KbpsWriting library : VirtualDub build 35491/release
VideoID : 0Format : MPEG-4 VisualFormat profile : Advanced Simple@L5Format settings, BVOP : 2Format settings, QPel : NoFormat settings, GMC : No warppointsFormat settings, Matrix : Default (H.263)Codec ID : XVIDCodec ID/Hint : XviDDuration : 10mn 6sBit rate : 998 KbpsWidth : 640 pixelsHeight : 480 pixelsDisplay aspect ratio : 4:3Frame rate : 25.000 fpsColor space : YUVChroma subsampling : 4:2:0Bit depth : 8 bitsScan type : ProgressiveCompression mode : LossyBits/(Pixel*Frame) : 0.130Stream size : 72.2 MiB (88%)Writing library : XviD 64
AudioID : 1Format : MPEG AudioFormat version : Version 1Format profile : Layer 3Mode : Joint stereoMode extension : MS StereoCodec ID : 55Codec ID/Hint : MP3Duration : 10mn 6sBit rate mode : ConstantBit rate : 128 KbpsChannel(s) : 2 channelsSampling rate : 44.1 KHzCompression mode : LossyStream size : 9.23 MiB (11%)Alignment : Split accross interleavesInterleave, duration : 40 ms (1.00 video frame)Interleave, preload duration : 501 ms

Скриншоты



[torrentc.info]_t_5286264.torrent
Торрент: Зарегистрирован ·  [ 2017-03-12 09:54 ] ·  e079241604f81678adac92ca91f01951ac7b91ea

13 KB

Статус: проверено
Скачан: 0 раз
Размер: 82 MB
Оценка: 
(Голосов: 0)
Сказали спасибо: 0  Спасибо
Похожие темы
[Профиль]    [ЛС]
Показать сообщения:    
Ответить на тему

Текущее время: Сегодня 09:51

Часовой пояс: GMT + 7



Вы не можете начинать темы
Вы не можете отвечать на сообщения
Вы не можете редактировать свои сообщения
Вы не можете удалять свои сообщения
Вы не можете голосовать в опросах
Вы не можете прикреплять файлы к сообщениям
Вы можете скачивать файлы