Черта / Рыса / Line (Михаил Тумеля) [1988, СССР, мультфильм для взрослых, WEBRip]

Ответить на тему
Статистика раздачи [Обновить пиров]
Размер:  27 MB   |    Зарегистрирован:  1 год 11 месяцев   |    Скачан:  0 раз

Полного источника не было: Никогда

 
   
 
 
 
Автор Сообщение

torrentc.info

Создавать темы 12-Мар-2017 09:54

[Цитировать]

Черта / Рыса / Line
Страна: СССР (Белорусская республика)
Жанр: мультфильм для взрослых
Продолжительность: 00:03:23
Год выхода: 1988
Перевод: не требуется
Режиссёр: Михаил Тумеля
Описание: Сатирический мультфильм о толпе, существующей в пределах, установленных начальством. И о независимой личности, способной выйти за этот предел.
Качество: WEBRip
Формат файла: AVI
Видео: 991 kbps, 656х464 (1.414), 25.000 fps, MPEG-4 Visual (XviD)
Аудио: 128 kbps, 44.1 kHz, 2 channels, MPEG Audio (MP3)
Субтитры: отсутствуют

Подробные технические данные

GeneralComplete name : Черта. 1988.aviFormat : AVIFormat/Info : Audio Video InterleaveFile size : 27.3 MiBDuration : 3mn 23sOverall bit rate : 1 129 KbpsWriting application : VirtualDubMod 1.5.10.2 (build 2540/release)Writing library : VirtualDubMod build 2540/release
VideoID : 0Format : MPEG-4 VisualFormat profile : Advanced Simple@L5Format settings, BVOP : 2Format settings, QPel : NoFormat settings, GMC : No warppointsFormat settings, Matrix : Default (H.263)Codec ID : XVIDCodec ID/Hint : XviDDuration : 3mn 23sBit rate : 991 KbpsWidth : 656 pixelsHeight : 464 pixelsDisplay aspect ratio : 1.414Frame rate : 25.000 fpsColor space : YUVChroma subsampling : 4:2:0Bit depth : 8 bitsScan type : ProgressiveCompression mode : LossyBits/(Pixel*Frame) : 0.130Stream size : 24.0 MiB (88%)Writing library : XviD 64
AudioID : 1Format : MPEG AudioFormat version : Version 1Format profile : Layer 3Codec ID : 55Codec ID/Hint : MP3Duration : 3mn 23sBit rate mode : ConstantBit rate : 128 KbpsChannel(s) : 2 channelsSampling rate : 44.1 KHzCompression mode : LossyStream size : 3.10 MiB (11%)Alignment : Split accross interleavesInterleave, duration : 40 ms (1.00 video frame)Interleave, preload duration : 500 ms

Скриншоты



[torrentc.info]_t_5289520.torrent
Торрент: Зарегистрирован ·  [ 2017-03-12 09:54 ] ·  3a7776bf874bc6d60a797301ce6492369d329016

18 KB

Статус: проверено
Скачан: 0 раз
Размер: 27 MB
Оценка: 
(Голосов: 0)
Сказали спасибо: 0  Спасибо
Похожие темы
[Профиль]    [ЛС]
Показать сообщения:    
Ответить на тему

Текущее время: Сегодня 09:41

Часовой пояс: GMT + 7



Вы не можете начинать темы
Вы не можете отвечать на сообщения
Вы не можете редактировать свои сообщения
Вы не можете удалять свои сообщения
Вы не можете голосовать в опросах
Вы не можете прикреплять файлы к сообщениям
Вы можете скачивать файлы