Английская колыбельная (Вероника Фёдорова) [2009, Россия, музыкальный мультфильм, WEBRip] из цикла "Колыбельные Мира"

Ответить на тему
Статистика раздачи [Обновить пиров]
Размер:  57 MB   |    Зарегистрирован:  1 год 11 месяцев   |    Скачан:  0 раз

Полного источника не было: Никогда

 
   
 
 
 
Автор Сообщение

torrentc.info

Создавать темы 12-Мар-2017 09:54

[Цитировать]

Английская колыбельная
Страна: Россия
Жанр: музыкальный мультфильм
Продолжительность: 00:04:06
Год выхода: 2009
Режиссёр: Вероника Фёдорова
Поёт: Альфред Деллер / Alfred Deller
Описание: Английская колыбельная песня "My sweet little darling". Перед началом дети рассказывают про Англию.
Мультфильм из цикла "Колыбельные Мира".
Предыдущие серии здесь - [url=viewtopic.php?t=2458663]http://torrentc/forum/viewtopic.php?t=2458663[/url]
Качество: WEBRip
Формат файла: AVI
Видео: 1794 kbps, 608х480 (5:4), 25.000 fps, MPEG-4 Visual (XviD)
Аудио: 128 kbps, 44.1 kHz, 2 channels, MPEG Audio (MP3)
Субтитры: отсутствуют

Подробные технические данные

GeneralComplete name : Английская колыбельная.aviFormat : AVIFormat/Info : Audio Video InterleaveFile size : 56.8 MiBDuration : 4mn 6sOverall bit rate : 1 932 KbpsWriting library : VirtualDub build 35491/release
VideoID : 0Format : MPEG-4 VisualFormat profile : Advanced Simple@L4Format settings, BVOP : 2Format settings, QPel : NoFormat settings, GMC : No warppointsFormat settings, Matrix : Default (H.263)Codec ID : XVIDCodec ID/Hint : XviDDuration : 4mn 6sBit rate : 1 794 KbpsWidth : 608 pixelsHeight : 480 pixelsDisplay aspect ratio : 5:4Frame rate : 25.000 fpsColor space : YUVChroma subsampling : 4:2:0Bit depth : 8 bitsScan type : ProgressiveCompression mode : LossyBits/(Pixel*Frame) : 0.246Stream size : 52.8 MiB (93%)Writing library : XviD 64
AudioID : 1Format : MPEG AudioFormat version : Version 1Format profile : Layer 3Mode : Joint stereoMode extension : MS StereoCodec ID : 55Codec ID/Hint : MP3Duration : 4mn 6sBit rate mode : ConstantBit rate : 128 KbpsChannel(s) : 2 channelsSampling rate : 44.1 KHzCompression mode : LossyStream size : 3.76 MiB (7%)Alignment : Split accross interleavesInterleave, duration : 40 ms (1.00 video frame)Interleave, preload duration : 500 ms

Скриншоты

Текст и перевод колыбельной

My sweet little darling, my comfort and joy,
Sing lullaby lulla.
In beauty surpassing the Princes of Troy.
Sing lullaby lulla.
Now hush, child, now sleep, child, thy mother's sweet boy.
Sing lullaby lulla.
The gods bless and keep thee from cruel annoy.
Sing lullaby lulla.
Sweet baby, lulla lulla, sweet baby, lullaby, lulla.
____________________________________________
Мой милый голубок, мой покой и радость,
Пою колыбельную, люли.
В красоте превосходишь принцев Трои.
Пою колыбельную, люли.
Тише, детка, засыпай, мамин милый мальчик.
Пою колыбельную, люли.
Боги благословят и сохранят тебя от жестокости.
Пою колыбельную, люли.
Милый малыш, люли-люли, милый малыш, колыбельная, люли.


[torrentc.info]_t_5290418.torrent
Торрент: Зарегистрирован ·  [ 2017-03-12 09:54 ] ·  f4bd4fd7435a46715d94f77649c57ea6302ab643

18 KB

Статус: проверено
Скачан: 0 раз
Размер: 57 MB
Оценка: 
(Голосов: 0)
Сказали спасибо: 0  Спасибо
Похожие темы
[Профиль]    [ЛС]
Показать сообщения:    
Ответить на тему

Текущее время: Сегодня 15:52

Часовой пояс: GMT + 7



Вы не можете начинать темы
Вы не можете отвечать на сообщения
Вы не можете редактировать свои сообщения
Вы не можете удалять свои сообщения
Вы не можете голосовать в опросах
Вы не можете прикреплять файлы к сообщениям
Вы можете скачивать файлы