Домик на поляне (Афиз Акперов) [1986, СССР, мультфильм, TVRip]

Ответить на тему
Статистика раздачи [Обновить пиров]
Размер:  84 MB   |    Зарегистрирован:  2 года   |    Скачан:  0 раз

Полного источника не было: Никогда

 
   
 
 
 
Автор Сообщение

Пушистый

Создавать темы 12-Мар-2017 09:54

[Цитировать]

Домик на поляне
Страна: СССР (Азербайджанская республика)
Жанр: мультфильм
Продолжительность: 00:08:48
Год выхода: 1986
Перевод: не требуется
Режиссёр: Афиз Акперов
Описание: Полевой мышонок встречает в поле городского мышонка, который "приехал с хозяевами на пикник". Городской приглашает полевого в гости, чтобы тот взглянул на вольготную городскую жизнь.
Качество: TVRip
Формат файла: AVI
Видео: 1197 kbps, 576х432 (4:3), 25.000 fps, MPEG-4 Visual (XviD)
Аудио: 128 kbps, 44.1 kHz, 2 channels, MPEG Audio (MP3)
Субтитры: отсутствуют

Подробные технические данные

GeneralComplete name : Домик на поляне. 1986.aviFormat : AVIFormat/Info : Audio Video InterleaveFile size : 84.1 MiBDuration : 8mn 48sOverall bit rate : 1 334 KbpsWriting application : MEncoder SVN-r30881(20100311-gcc4.3.3)Writing library : VirtualDub build 35491/release
VideoID : 0Format : MPEG-4 VisualFormat profile : Advanced Simple@L5Format settings, BVOP : 2Format settings, QPel : NoFormat settings, GMC : No warppointsFormat settings, Matrix : Default (H.263)Codec ID : XVIDCodec ID/Hint : XviDDuration : 8mn 48sBit rate : 1 197 KbpsWidth : 576 pixelsHeight : 432 pixelsDisplay aspect ratio : 4:3Frame rate : 25.000 fpsColor space : YUVChroma subsampling : 4:2:0Bit depth : 8 bitsScan type : ProgressiveCompression mode : LossyBits/(Pixel*Frame) : 0.192Stream size : 75.4 MiB (90%)Writing library : XviD 64
AudioID : 1Format : MPEG AudioFormat version : Version 1Format profile : Layer 3Mode : Joint stereoMode extension : MS StereoCodec ID : 55Codec ID/Hint : MP3Duration : 8mn 48sBit rate mode : ConstantBit rate : 128 KbpsChannel(s) : 2 channelsSampling rate : 44.1 KHzCompression mode : LossyStream size : 8.05 MiB (10%)Alignment : Split accross interleavesInterleave, duration : 40 ms (1.00 video frame)Interleave, preload duration : 501 ms

Скриншоты



[torrentc.info]_t_5292969.torrent
Торрент: Зарегистрирован ·  [ 2017-03-12 09:54 ] ·  aee8216868501c3f6708852006572097e61d207e

14 KB

Статус: проверено
Скачан: 0 раз
Размер: 84 MB
Оценка: 
(Голосов: 0)
Сказали спасибо: 0  Спасибо
Похожие темы
[Профиль]    [ЛС]
Показать сообщения:    
Ответить на тему

Текущее время: Сегодня 05:36

Часовой пояс: GMT + 7



Вы не можете начинать темы
Вы не можете отвечать на сообщения
Вы не можете редактировать свои сообщения
Вы не можете удалять свои сообщения
Вы не можете голосовать в опросах
Вы не можете прикреплять файлы к сообщениям
Вы можете скачивать файлы