Помощники (Ирина Кривошеева) [1985, CCCР, Рисованный мультфильм, TVRip]

Ответить на тему
Статистика раздачи [Обновить пиров]
Размер:  129 MB   |    Зарегистрирован:  1 год 11 месяцев   |    Скачан:  0 раз

Полного источника не было: Никогда

 
   
 
 
 
Автор Сообщение

torrentc.info

Создавать темы 12-Мар-2017 09:54

[Цитировать]

Помощники
Страна: CCCР
Жанр: Рисованный мультфильм
Продолжительность: 00:07:56
Год выхода: 1985
Русские субтитры: нет
Режиссёр: Ирина Кривошеева
Описание: Забавный мультфильм, о помощниках для мамы….
Доп. информация: «Узбекфильм»
сценаристы: А.Устименко, Л.Полевая
Большая благодарность за предоставленный РИП пользователю ПростоИваныч
PS: мульт без начальных и финальных титров
Качество: TVRip
Формат файла: AVI
Видео: 720x566 (1.27:1), 25 fps, XviD build 65 ~2003 kbps avg, 0.20 bit/pixel
Аудио: 44.100 kHz, MPEG Layer 3, 2 ch, ~256.00 kbps avg
Субтитры: нет

Подробные технические данные

Format : AVIFormat/Info : Audio Video InterleaveFile size : 129 MiBDuration : 7mn 56sOverall bit rate : 2 273 KbpsWriting application : Lavf56.25.101
VideoID : 0Format : xvidCodec ID : xvidDuration : 7mn 56sBit rate : 2 004 KbpsWidth : 720 pixelsHeight : 566 pixelsDisplay aspect ratio : 4:3Frame rate : 25.000 fpsBits/(Pixel*Frame) : 0.197Stream size : 114 MiB (88%)
AudioID : 1Format : MPEG AudioFormat version : Version 1Format profile : Layer 3Mode : Joint stereoMode extension : MS StereoCodec ID : 55Codec ID/Hint : MP3Duration : 7mn 56sBit rate mode : ConstantBit rate : 256 KbpsChannel(s) : 2 channelsSampling rate : 44.1 KHzCompression mode : LossyStream size : 14.5 MiB (11%)Alignment : Aligned on interleavesInterleave, duration : 26 ms (0.65 video frame)Interleave, preload duration : 26 msWriting library : LAME3.99.O

Скриншоты



[torrentc.info]_t_5291806.torrent
Торрент: Зарегистрирован ·  [ 2017-03-12 09:54 ] ·  d2f62a31c0f95cd8ce86298c2ef1feab139d9e3d

10 KB

Статус: проверено
Скачан: 0 раз
Размер: 129 MB
Оценка: 
(Голосов: 0)
Сказали спасибо: 0  Спасибо
Похожие темы
[Профиль]    [ЛС]
Показать сообщения:    
Ответить на тему

Текущее время: Сегодня 09:39

Часовой пояс: GMT + 7



Вы не можете начинать темы
Вы не можете отвечать на сообщения
Вы не можете редактировать свои сообщения
Вы не можете удалять свои сообщения
Вы не можете голосовать в опросах
Вы не можете прикреплять файлы к сообщениям
Вы можете скачивать файлы