Морошка / Moroshka (Полина Минченок) [2015, Россия, мультфильм, сказка, WEBRip-AVC]

Ответить на тему
Статистика раздачи [Обновить пиров]
Размер:  47 MB   |    Зарегистрирован:  1 год 11 месяцев   |    Скачан:  0 раз

Полного источника не было: Никогда

 
   
 
 
 
Автор Сообщение

torrentc.info

Создавать темы 12-Мар-2017 09:54

[Цитировать]

Морошка / Moroshka
Страна: Россия
Жанр: мультфильм, сказка
Продолжительность: 00:07:46
Год выхода: 2015
Перевод: не требуется
Русские субтитры: нет
Режиссёр: Полина Минченок
Композитор: Захар Антонов
Описание: Сказка про гигантского волка, наводившего страх на всех жителей деревни. И про добрую девочку, которая не испугалась и подружилась с ним. А заодно вылечила его больную лапу, и научила есть вместо овец блины и ягоду-морошку.
Доп. информация:
Приз за лучший фильм для детей - Фестиваль в Суздале (2016)
1 место по разделу "Премьеры" - Большой фестиваль мультфильмов (2016)
Приз за лучший дебют - Фестиваль "Лучезарный ангел" (2016)
Приз публики - Фестиваль детско-юношеского кино в Порту (2017)
Качество: WEBRip-AVC
Формат файла: MP4
Видео: 724 kbps, 1280х720 (16:9), 25.000 fps, AVC (High@L3.1)
Аудио: 126 kbps, 44.1 kHz, 2 channels, AAC (LC)
Субтитры: отсутствуют

Подробные технические данные

GeneralComplete name : Морошка (2015).mp4Format : MPEG-4Format profile : Base Media / Version 2Codec ID : mp42File size : 47.5 MiBDuration : 7mn 46sOverall bit rate mode : VariableOverall bit rate : 853 KbpsEncoded date : UTC 2016-10-01 08:08:17Tagged date : UTC 2016-10-01 08:08:17gsst : 0gstd : 466976
VideoID : 1Format : AVCFormat/Info : Advanced Video CodecFormat profile : Main@L3.1Format settings, CABAC : YesFormat settings, ReFrames : 3 framesCodec ID : avc1Codec ID/Info : Advanced Video CodingDuration : 7mn 46sBit rate : 724 KbpsWidth : 1 280 pixelsHeight : 720 pixelsDisplay aspect ratio : 16:9Frame rate mode : ConstantFrame rate : 25.000 fpsColor space : YUVChroma subsampling : 4:2:0Bit depth : 8 bitsScan type : ProgressiveBits/(Pixel*Frame) : 0.031Stream size : 40.3 MiB (85%)Title : ISO Media file produced by Google Inc.Encoded date : UTC 2016-10-01 08:08:17Tagged date : UTC 2016-10-01 08:08:17Color primaries : BT.709Transfer characteristics : BT.709Matrix coefficients : BT.709
AudioID : 2Format : AACFormat/Info : Advanced Audio CodecFormat profile : LCCodec ID : 40Duration : 7mn 46sBit rate mode : VariableBit rate : 126 KbpsChannel(s) : 2 channelsChannel positions : Front: L RSampling rate : 44.1 KHzCompression mode : LossyStream size : 6.99 MiB (15%)Title : ISO Media file produced by Google Inc.Encoded date : UTC 2016-10-01 08:08:17Tagged date : UTC 2016-10-01 08:08:17

Скриншоты



[torrentc.info]_t_5293323.torrent
Торрент: Зарегистрирован ·  [ 2017-03-12 09:54 ] ·  e64eae60d35e6323e898525f161211108d2e5180

15 KB

Статус: проверено
Скачан: 0 раз
Размер: 47 MB
Оценка: 
(Голосов: 0)
Сказали спасибо: 0  Спасибо
Похожие темы
[Профиль]    [ЛС]
Показать сообщения:    
Ответить на тему

Текущее время: Сегодня 15:49

Часовой пояс: GMT + 7



Вы не можете начинать темы
Вы не можете отвечать на сообщения
Вы не можете редактировать свои сообщения
Вы не можете удалять свои сообщения
Вы не можете голосовать в опросах
Вы не можете прикреплять файлы к сообщениям
Вы можете скачивать файлы