Литовская колыбельная (Елизавета Скворцова, Мария Литвинова, Инга Коржнева, Светлана Зуева, Анна Самойлович) [2009, Россия, музыкальный мультфильм, WEBRip] из цикла "Колыбельные Мира"

Ответить на тему
Статистика раздачи [Обновить пиров]
Размер:  57 MB   |    Зарегистрирован:  1 год 11 месяцев   |    Скачан:  0 раз

Полного источника не было: Никогда

 
   
 
 
 
Автор Сообщение

torrentc.info

Создавать темы 12-Мар-2017 09:54

[Цитировать]

Литовская колыбельная
Страна: Россия
Жанр: музыкальный мультфильм
Продолжительность: 00:04:07
Год выхода: 2009
Режиссёр: Елизавета Скворцова, Мария Литвинова, Инга Коржнева, Светлана Зуева, Анна Самойлович
Поёт: Желвинас Раманаускас / Žilvinas Ramanauskas
Описание: Экранизация литовской колыбельной песни. Перед началом дети рассказывают про Литву.
Доп. информация: Мультфильм из цикла "Колыбельные Мира".
Предыдущие серии здесь - [url=viewtopic.php?t=2458663]http://torrentc/forum/viewtopic.php?t=2458663[/url]
Качество: WEBRip
Формат файла: AVI
Видео: 1784 kbps, 608х480 (5:4), 25.000 fps, MPEG-4 Visual (XviD)
Аудио: 128 kbps, 44.1 kHz, 2 channels, MPEG Audio (MP3)
Субтитры: отсутствуют

Подробные технические данные

GeneralComplete name : Литовская колыбельная (2009).aviFormat : AVIFormat/Info : Audio Video InterleaveFile size : 56.7 MiBDuration : 4mn 7sOverall bit rate : 1 922 KbpsWriting library : VirtualDub build 35491/release
VideoID : 0Format : MPEG-4 VisualFormat profile : Advanced Simple@L4Format settings, BVOP : 2Format settings, QPel : NoFormat settings, GMC : No warppointsFormat settings, Matrix : Default (H.263)Codec ID : XVIDCodec ID/Hint : XviDDuration : 4mn 7sBit rate : 1 784 KbpsWidth : 608 pixelsHeight : 480 pixelsDisplay aspect ratio : 5:4Frame rate : 25.000 fpsColor space : YUVChroma subsampling : 4:2:0Bit depth : 8 bitsScan type : ProgressiveCompression mode : LossyBits/(Pixel*Frame) : 0.244Stream size : 52.7 MiB (93%)Writing library : XviD 64
AudioID : 1Format : MPEG AudioFormat version : Version 1Format profile : Layer 3Mode : Joint stereoMode extension : MS StereoCodec ID : 55Codec ID/Hint : MP3Duration : 4mn 7sBit rate mode : ConstantBit rate : 128 KbpsChannel(s) : 2 channelsSampling rate : 44.1 KHzCompression mode : LossyStream size : 3.77 MiB (7%)Alignment : Split accross interleavesInterleave, duration : 40 ms (1.00 video frame)Interleave, preload duration : 500 ms

Скриншоты

Текст и перевод колыбельной

Pelel, pelel nešk miegelį
Po mažyčio pagalvėle
Saldų miegelį.
Kad katelė nepajustų,
Mažytėlė nepabustų,
Kad saldžiai miegotų.
Pelel, pelel, nešk miegelį
Per devynias kamarėles,
Saldų miegelį.
Pelel, pelel, nešk miegelį
Kaip bitelė medutėlį,
Saldų miegelį.
Pasuoleliais, paloveliais,
Po mažytės pagalvėle,
Saldų miegelį.
Kad katelė nepajustų,
Mažytėlė nepabustų,
Saldžiai miegotų.
_______________________
Мышка-мышка, неси сон,
Под подушку малышке
Сладкий сон.
Чтобы кот не почуял,
Маленькая не проснулась,
Чтобы сладко спала.
Мышка-мышка, неси сон,
Через девять комнат
Сладкий сон.
Мышка-мышка, неси сон,
Как пчелиный мёд
Сладкий сон.
По скамейке в колыбельку,
Под подушечку
Сладкий сон.
Чтобы кот не почуял,
Тарелка не разбилась.
Сладкий сон.


[torrentc.info]_t_5293936.torrent
Торрент: Зарегистрирован ·  [ 2017-03-12 09:54 ] ·  5755fc5278d7425101df6d518e49b7200a2472e2

18 KB

Статус: проверено
Скачан: 0 раз
Размер: 57 MB
Оценка: 
(Голосов: 0)
Сказали спасибо: 0  Спасибо
Похожие темы
[Профиль]    [ЛС]
Показать сообщения:    
Ответить на тему

Текущее время: Сегодня 10:32

Часовой пояс: GMT + 7



Вы не можете начинать темы
Вы не можете отвечать на сообщения
Вы не можете редактировать свои сообщения
Вы не можете удалять свои сообщения
Вы не можете голосовать в опросах
Вы не можете прикреплять файлы к сообщениям
Вы можете скачивать файлы