Мост (Дина Великовская) [2009, Россия, мультфильм, WEBRip]

Ответить на тему
Статистика раздачи [Обновить пиров]
Размер:  66 MB   |    Зарегистрирован:  1 год 11 месяцев   |    Скачан:  0 раз

Полного источника не было: Никогда

 
   
 
 
 
Автор Сообщение

torrentc.info

Создавать темы 12-Мар-2017 09:54

[Цитировать]

Мост
Страна: Россия
Жанр: мультфильм
Продолжительность: 00:07:57
Год выхода: 2009
Режиссёр: Дина Великовская
Композитор: Мария Гутник
Описание: Образный сюжет о ребёнке, родители которого находятся в разводе. Последнее, что их соединяет - это деревянный мост через канал, по которому мальчик ходит встречаться с отцом.
Доп. информация: Приз за лучший студенческий фильм - Суздальский Фестиваль анимации (2010)
Качество: WEBRip
Формат файла: AVI
Видео: 984 kbps, 640х352 (16:9), 25.000 fps, MPEG-4 Visual (XviD)
Аудио: 160 kbps, 44.1 kHz, 2 channel, MPEG Audio (MP3)
Субтитры: отсутствуют

Подробные технические данные

GeneralComplete name : Мост. 2009.aviFormat : AVIFormat/Info : Audio Video InterleaveFile size : 65.7 MiBDuration : 7mn 57sOverall bit rate : 1 154 KbpsWriting application : MEncoder Sherpya-SVN-r32492-4.2.5Writing library : VirtualDub build 35491/release
VideoID : 0Format : MPEG-4 VisualFormat profile : Advanced Simple@L4Format settings, BVOP : 2Format settings, QPel : NoFormat settings, GMC : No warppointsFormat settings, Matrix : Default (H.263)Codec ID : XVIDCodec ID/Hint : XviDDuration : 7mn 57sBit rate : 984 KbpsWidth : 640 pixelsHeight : 352 pixelsDisplay aspect ratio : 16:9Frame rate : 25.000 fpsColor space : YUVChroma subsampling : 4:2:0Bit depth : 8 bitsScan type : ProgressiveCompression mode : LossyBits/(Pixel*Frame) : 0.175Stream size : 56.0 MiB (85%)Writing library : XviD 64
AudioID : 1Format : MPEG AudioFormat version : Version 1Format profile : Layer 3Mode : Joint stereoCodec ID : 55Codec ID/Hint : MP3Duration : 7mn 57sBit rate mode : ConstantBit rate : 160 KbpsChannel(s) : 2 channelsSampling rate : 44.1 KHzCompression mode : LossyStream size : 9.10 MiB (14%)Alignment : Split accross interleavesInterleave, duration : 40 ms (1.00 video frame)Interleave, preload duration : 500 ms

Скриншоты



[torrentc.info]_t_5296396.torrent
Торрент: Зарегистрирован ·  [ 2017-03-12 09:54 ] ·  a5f7e7c0b51c6ff8a774d8db68257120d67ac1

11 KB

Статус: проверено
Скачан: 0 раз
Размер: 66 MB
Оценка: 
(Голосов: 0)
Сказали спасибо: 0  Спасибо
Похожие темы
[Профиль]    [ЛС]
Показать сообщения:    
Ответить на тему

Текущее время: Сегодня 16:40

Часовой пояс: GMT + 7



Вы не можете начинать темы
Вы не можете отвечать на сообщения
Вы не можете редактировать свои сообщения
Вы не можете удалять свои сообщения
Вы не можете голосовать в опросах
Вы не можете прикреплять файлы к сообщениям
Вы можете скачивать файлы