Кукушка (Дина Великовская) [2016, Россия, мультфильм для взрослых, WEBRip]

Ответить на тему
Статистика раздачи [Обновить пиров]
Размер:  83 MB   |    Зарегистрирован:  1 год 11 месяцев   |    Скачан:  0 раз

Полного источника не было: Никогда

 
   
 
 
 
Автор Сообщение

torrentc.info

Создавать темы 12-Мар-2017 09:54

[Цитировать]

Кукушка
Страна: Россия
Жанр: мультфильм для взрослых
Продолжительность: 00:08:45
Год выхода: 2016
Режиссёр: Дина Великовская
Описание: В пустынном мире, населённом антропоморфными птицами, Кукушка - пилигрим, зачарованно стремящийся к солнцу. Некстати снесённое яйцо воспринимается ей как помеха в этом стремлении. От яйца можно привычно избавиться, но неожиданно из него вылупляется птенец...
Доп. информация:
Приз мэтров и Приз жюри "За создание сложного женского образа" - Фестиваль в Суздале (2016)
Приз имени Александра Татарского "За высший пилотаж" - Международный фестиваль "КРОК" (2016)
Спецприз жюри - Международный фестиваль "Бессонница" (2016)
Диплом "За тягу к свету" - Московский фестиваль "Будем жить!" (2016)
Лучший анимационный фильм - Премия Гильдии киноведов "Белый слон" (2017)
Почётное упоминание - Фестиваль "Cortosplash" (Италия)
Специальный приз - Кинофестиваль "Cinema di Frontiera" (Италия)
Приз за лучший мультфильм - Фестиваль "DaKino" (Румыния)
Диплом - Фестиваль "Tindirindis" (Литва)
Качество: WEBRip
Формат файла: AVI
Видео: 1151 kbps, 688х384 (16:9), 25.000 fps, MPEG-4 Visual (XviD)
Аудио: 160 kbps, 44.1 kHz, 2 channels, MPEG Audio (MP3)
Субтитры: отсутствуют

Подробные технические данные

GeneralComplete name : Кукушка (2016).aviFormat : AVIFormat/Info : Audio Video InterleaveFile size : 82.7 MiBDuration : 8mn 45sOverall bit rate : 1 321 KbpsWriting library : VirtualDub build 35491/release
VideoID : 0Format : MPEG-4 VisualFormat profile : Advanced Simple@L4Format settings, BVOP : 2Format settings, QPel : NoFormat settings, GMC : No warppointsFormat settings, Matrix : Default (H.263)Codec ID : XVIDCodec ID/Hint : XviDDuration : 8mn 45sBit rate : 1 151 KbpsWidth : 688 pixelsHeight : 384 pixelsDisplay aspect ratio : 16:9Frame rate : 25.000 fpsColor space : YUVChroma subsampling : 4:2:0Bit depth : 8 bitsScan type : ProgressiveCompression mode : LossyBits/(Pixel*Frame) : 0.174Stream size : 72.0 MiB (87%)Writing library : XviD 64
AudioID : 1Format : MPEG AudioFormat version : Version 1Format profile : Layer 3Mode : Joint stereoCodec ID : 55Codec ID/Hint : MP3Duration : 8mn 44sBit rate mode : ConstantBit rate : 160 KbpsChannel(s) : 2 channelsSampling rate : 44.1 KHzCompression mode : LossyStream size : 10.0 MiB (12%)Alignment : Split accross interleavesInterleave, duration : 40 ms (1.00 video frame)Interleave, preload duration : 500 ms

Скриншоты



[torrentc.info]_t_5296766.torrent
Торрент: Зарегистрирован ·  [ 2017-03-12 09:54 ] ·  576215a43b9056b5a53c8f3c573a86804ccad358

13 KB

Статус: проверено
Скачан: 0 раз
Размер: 83 MB
Оценка: 
(Голосов: 0)
Сказали спасибо: 0  Спасибо
Похожие темы
[Профиль]    [ЛС]
Показать сообщения:    
Ответить на тему

Текущее время: Сегодня 09:54

Часовой пояс: GMT + 7



Вы не можете начинать темы
Вы не можете отвечать на сообщения
Вы не можете редактировать свои сообщения
Вы не можете удалять свои сообщения
Вы не можете голосовать в опросах
Вы не можете прикреплять файлы к сообщениям
Вы можете скачивать файлы